<?xml version="1.0" standalone="no"?>
<!DOCTYPE svg PUBLIC "-//W3C//DTD SVG 1.1//EN" "http://www.w3.org/Graphics/SVG/1.1/DTD/svg11.dtd" >
<svg xmlns="http://www.w3.org/2000/svg">
<metadata></metadata>
<defs>
<font id="dejavu_sansbold_oblique" horiz-adv-x="1716" >
<font-face units-per-em="2048" ascent="1556" descent="-492" />
<missing-glyph horiz-adv-x="713" />
<glyph unicode="&#xfb00;" horiz-adv-x="1705" d="M102 864l50 256h178l15 78q36 183 155 270q119 88 333 88h274l-46 -235h-198q-76 0 -111 -27q-36 -28 -49 -96l-15 -78h410l15 78q36 183 155 270q119 88 333 88h274l-46 -235h-198q-76 0 -111 -27q-36 -28 -49 -96l-15 -78h306l-50 -256h-306l-168 -864h-358l168 864 h-410l-168 -864h-358l168 864h-178z" />
<glyph unicode="fi" horiz-adv-x="1612" d="M102 864l50 256h176l16 78q37 186 154 272t333 86h275l-47 -235h-197q-75 0 -109.5 -27.5t-47.5 -94.5l-17 -79h862l-219 -1120h-358l167 864h-501l-168 -864h-360l168 864h-177zM1217 1264l57 292h360l-57 -292h-360z" />
<glyph unicode="fl" horiz-adv-x="1612" d="M102 864l50 256h176l16 78q37 186 154 272t333 86h803l-303 -1556h-358l254 1321h-365q-75 0 -109.5 -27.5t-47.5 -94.5l-17 -79h303l-49 -256h-303l-168 -864h-360l168 864h-177z" />
<glyph unicode="&#xfb03;" horiz-adv-x="2330" d="M102 864l50 256h178l15 78q36 183 155 270q119 88 333 88h274l-46 -235h-198q-76 0 -111 -27q-36 -28 -49 -96l-15 -78h410l15 78q36 183 155 270q119 88 333 88h274l-46 -235h-198q-75 0 -109 -27q-35 -28 -48 -96l-15 -78h766l-218 -1120h-361l168 864h-405l-168 -864 h-361l168 864h-410l-168 -864h-358l168 864h-178zM1892 1264l57 292h361l-57 -292h-361z" />
<glyph unicode="&#xfb04;" horiz-adv-x="2332" d="M102 864l50 256h178l15 78q36 183 155 270q119 88 333 88h274l-46 -235h-198q-76 0 -111 -27q-36 -28 -49 -96l-15 -78h410l15 78q36 183 155 270q119 88 333 88h711l-303 -1556h-361l257 1321h-274q-76 0 -111 -27q-36 -28 -49 -96l-15 -78h281l-50 -256h-281l-168 -864 h-358l168 864h-410l-168 -864h-358l168 864h-178z" />
<glyph unicode="&#xd;" horiz-adv-x="682" />
<glyph unicode=" "  horiz-adv-x="713" />
<glyph unicode="&#x09;" horiz-adv-x="713" />
<glyph unicode="&#xa0;" horiz-adv-x="713" />
<glyph unicode="!" horiz-adv-x="934" d="M141 0l70 356h360l-69 -356h-361zM291 502l28 418l113 573h361l-113 -573l-131 -418h-258z" />
<glyph unicode="&#x22;" horiz-adv-x="1067" d="M195 938v555h237v-555h-237zM635 938v555h237v-555h-237z" />
<glyph unicode="#" horiz-adv-x="1425" d="M133 383l53 215h281l70 274h-283l53 213h285l96 385h223l-96 -385h264l97 385h221l-97 -385h297l-53 -213h-297l-69 -274h297l-54 -215h-295l-96 -383h-221l96 383h-264l-96 -383h-223l96 383h-285zM690 598h264l70 274h-264z" />
<glyph unicode="$" horiz-adv-x="1425" d="M55 86l49 262q96 -55 204.5 -85.5t228.5 -34.5l61 311q-210 31 -305.5 111.5t-95.5 223.5q0 199 149.5 321.5t404.5 131.5l44 229h161l-43 -227q101 -6 195 -23t182 -44l-49 -254q-63 37 -158.5 60.5t-214.5 30.5l-57 -288q213 -36 315.5 -117t102.5 -215 q0 -220 -150.5 -345t-424.5 -134l-58 -301h-162l59 301q-127 5 -236 26.5t-202 59.5zM522 948q0 -48 32.5 -75.5t100.5 -36.5l51 262q-84 -8 -134 -48.5t-50 -101.5zM699 227q99 5 152.5 48t53.5 118q0 51 -36.5 79.5t-114.5 39.5z" />
<glyph unicode="%" horiz-adv-x="2052" d="M113 1018q0 222 133.5 362t347.5 140q156 0 251 -86t95 -226q0 -223 -133.5 -362t-347.5 -139q-157 0 -251.5 85t-94.5 226zM287 -29l1235 1549h245l-1235 -1549h-245zM367 1051q0 -88 30.5 -132.5t91.5 -44.5q87 0 142 85t55 221q0 84 -31.5 128t-91.5 44 q-86 0 -141 -84.5t-55 -216.5zM1114 285q0 222 132.5 360.5t346.5 138.5q157 0 251.5 -85.5t94.5 -225.5q0 -224 -132.5 -363t-346.5 -139q-157 0 -251.5 86.5t-94.5 227.5zM1368 315q0 -87 30.5 -130.5t92.5 -43.5q87 0 142 84t55 219q0 85 -31.5 128.5t-91.5 43.5 q-86 0 -141.5 -84t-55.5 -217z" />
<glyph unicode="&#x26;" horiz-adv-x="1786" d="M57 416q0 151 95.5 277.5t296.5 240.5q-26 44 -39 89t-13 93q0 176 151 290t390 114q91 0 186.5 -14.5t196.5 -43.5l-53 -278q-87 48 -166 71t-158 23q-86 0 -136 -36t-50 -97q0 -38 30 -96.5t89 -133.5l297 -374q62 63 107 151t73 203h311q-43 -175 -122.5 -318 t-199.5 -255l256 -322h-438l-84 106q-118 -68 -236 -101.5t-241 -33.5q-245 0 -394 123t-149 322zM412 483q0 -107 76 -180.5t190 -73.5q60 0 119 21t118 63l-340 430q-80 -51 -121.5 -117.5t-41.5 -142.5z" />
<glyph unicode="'" horiz-adv-x="627" d="M195 938v555h237v-555h-237z" />
<glyph unicode="(" horiz-adv-x="936" d="M158 373q0 295 127 589.5t383 591.5h290q-233 -310 -347.5 -613.5t-114.5 -608.5q0 -150 27 -299.5t81 -302.5h-291q-78 166 -116.5 325.5t-38.5 317.5z" />
<glyph unicode=")" horiz-adv-x="936" d="M-55 -270q233 310 348 614t115 610q0 150 -27 298.5t-82 301.5h293q77 -164 115 -323.5t38 -319.5q0 -298 -126.5 -592.5t-380.5 -588.5h-293z" />
<glyph unicode="*" horiz-adv-x="1071" d="M41 870l334 174l-334 173l76 141l334 -182v344h170v-344l333 182l76 -141l-330 -173l330 -174l-76 -141l-333 184v-344h-170v344l-334 -184z" />
<glyph unicode="+" d="M217 524v236h522v524h238v-524h522v-236h-522v-524h-238v524h-522z" />
<glyph unicode="," horiz-adv-x="778" d="M-70 -291l174 373l60 305h360l-59 -305l-322 -373h-213z" />
<glyph unicode="-" horiz-adv-x="850" d="M51 444l58 291h628l-57 -291h-629z" />
<glyph unicode="." horiz-adv-x="778" d="M94 0l76 387h360l-75 -387h-361z" />
<glyph unicode="/" horiz-adv-x="748" d="M-197 -190l854 1683h232l-854 -1683h-232z" />
<glyph unicode="0" horiz-adv-x="1425" d="M74 510q0 196 54.5 384.5t152.5 328.5q103 147 245 222t320 75q243 0 374.5 -139.5t131.5 -397.5q0 -199 -55 -387t-154 -330q-101 -146 -244 -220.5t-319 -74.5q-245 0 -375.5 139t-130.5 400zM446 451q0 -111 41 -164.5t125 -53.5q77 0 136.5 46t99.5 135 q28 63 51 143.5t43 190.5q17 89 26 164t9 128q0 112 -40 164.5t-124 52.5q-78 0 -137 -44.5t-98 -135.5q-30 -65 -54.5 -148t-42.5 -181q-17 -90 -26 -167t-9 -130z" />
<glyph unicode="1" horiz-adv-x="1425" d="M88 0l53 266h340l187 965l-363 -72l51 262l361 72h366l-237 -1227h338l-51 -266h-1045z" />
<glyph unicode="2" horiz-adv-x="1425" d="M16 0l56 285l635 479q104 80 158.5 162t54.5 159q0 82 -56 127t-157 45q-95 0 -212 -37.5t-264 -115.5l64 317q136 50 267 74.5t259 24.5q228 0 359 -98.5t131 -268.5q0 -146 -80 -266t-352 -324l-373 -280h649l-55 -283h-1084z" />
<glyph unicode="3" horiz-adv-x="1425" d="M0 45l57 297q89 -52 194 -80.5t210 -28.5q169 0 267.5 63.5t98.5 170.5q0 89 -75 133.5t-226 44.5h-153l49 248h162q157 0 248.5 57t91.5 154q0 76 -63.5 116t-184.5 40q-85 0 -185 -22t-208 -64l55 282q118 32 232.5 48t226.5 16q253 0 380.5 -84t127.5 -250 q0 -149 -88.5 -248.5t-249.5 -132.5q113 -26 176 -105t63 -194q0 -248 -196.5 -391.5t-540.5 -143.5q-130 0 -247.5 18.5t-221.5 55.5z" />
<glyph unicode="4" horiz-adv-x="1425" d="M-2 272l65 330l771 891h438l-185 -942h213l-53 -279h-213l-53 -272h-365l54 272h-672zM313 551h410l121 614z" />
<glyph unicode="5" horiz-adv-x="1425" d="M27 70l59 303q111 -72 215.5 -106t212.5 -34q158 0 253 82.5t95 216.5q0 96 -72 152.5t-196 56.5q-84 0 -181.5 -21.5t-213.5 -66.5l163 840h957l-55 -283h-650l-45 -231q44 12 91.5 18.5t95.5 6.5q229 0 358 -104.5t129 -289.5q0 -294 -199 -466.5t-540 -172.5 q-125 0 -243 24.5t-234 74.5z" />
<glyph unicode="6" horiz-adv-x="1425" d="M102 522q0 204 62 389.5t174 319.5q120 143 283.5 215t367.5 72q94 0 183 -16t180 -48l-54 -276q-86 44 -167 66t-162 22q-186 0 -301 -100t-140 -281q78 51 160.5 75.5t175.5 24.5q184 0 301 -109t117 -278q0 -276 -180.5 -452.5t-464.5 -176.5q-255 0 -395 144.5 t-140 408.5zM481 401q0 -89 45 -138.5t125 -49.5q113 0 186.5 92.5t73.5 233.5q0 96 -44 147t-126 51q-114 0 -187 -94t-73 -242z" />
<glyph unicode="7" horiz-adv-x="1425" d="M160 0l790 1210h-708l53 283h1126l-45 -219l-831 -1274h-385z" />
<glyph unicode="8" horiz-adv-x="1425" d="M45 344q0 159 105.5 278.5t291.5 172.5q-108 45 -161.5 117t-53.5 173q0 203 166.5 319t460.5 116q236 0 366 -88t130 -248q0 -142 -90.5 -243t-258.5 -146q122 -47 180 -126t58 -200q0 -230 -179.5 -364t-492.5 -134q-247 0 -384.5 98.5t-137.5 274.5zM414 393 q0 -83 51 -131.5t139 -48.5q119 0 197 78.5t78 195.5q0 83 -51.5 132t-139.5 49q-117 0 -195.5 -79.5t-78.5 -195.5zM594 1061q0 -68 44.5 -110t117.5 -42q102 0 163.5 59.5t61.5 157.5q0 69 -44.5 110.5t-117.5 41.5q-102 0 -163.5 -59.5t-61.5 -157.5z" />
<glyph unicode="9" horiz-adv-x="1425" d="M84 33l53 276q87 -45 168 -66.5t162 -21.5q186 0 301 100t139 281q-77 -51 -159 -75.5t-175 -24.5q-183 0 -300 109t-117 278q0 276 180.5 452.5t464.5 176.5q255 0 394.5 -144.5t139.5 -408.5q0 -203 -62 -388.5t-175 -320.5q-120 -143 -282.5 -215t-366.5 -72 q-95 0 -185 16t-180 48zM524 948q0 -96 44 -147t126 -51q114 0 187 94t73 241q0 91 -43.5 140t-124.5 49q-113 0 -187.5 -93t-74.5 -233z" />
<glyph unicode=":" horiz-adv-x="819" d="M84 0l76 387h360l-76 -387h-360zM227 733l74 387h361l-74 -387h-361z" />
<glyph unicode=";" horiz-adv-x="819" d="M-72 -291l172 373l60 305h360l-59 -305l-320 -373h-213zM227 733l74 387h361l-74 -387h-361z" />
<glyph unicode="&#x3c;" d="M217 524v236l1282 463v-250l-964 -332l964 -330v-250z" />
<glyph unicode="=" d="M217 295v237h1282v-237h-1282zM217 752v235h1282v-235h-1282z" />
<glyph unicode="&#x3e;" d="M217 61v250l965 330l-965 332v250l1282 -463v-236z" />
<glyph unicode="?" horiz-adv-x="1188" d="M213 0l70 356h360l-70 -356h-360zM225 1124l62 314q127 42 232 62t202 20q194 0 304 -85.5t110 -234.5q0 -119 -53 -213t-181 -196l-76 -60q-80 -62 -108.5 -100.5t-36.5 -81.5l-8 -45h-361l8 49q16 80 59.5 142.5t174.5 164.5l74 58q79 61 115 114t36 107 q0 57 -40.5 87.5t-116.5 30.5q-80 0 -180.5 -33.5t-215.5 -99.5z" />
<glyph unicode="@" horiz-adv-x="2048" d="M92 434q0 176 60 340t174 301q146 176 351.5 270.5t442.5 94.5q166 0 307 -46.5t252 -138.5q105 -89 162 -208.5t57 -249.5q0 -315 -204.5 -512t-536.5 -197q-5 0 -14 -1t-13 -1q-5 0 -8.5 0.5t-5.5 1.5l31 158q-45 -75 -120 -116.5t-165 -41.5q-143 0 -225 94.5 t-82 261.5q0 221 142 382t339 161q83 0 145.5 -42t82.5 -111l24 133h203l-133 -693q151 22 252.5 163.5t101.5 332.5q0 213 -164.5 348t-427.5 135q-196 0 -364.5 -76t-286.5 -219q-92 -110 -140 -242t-48 -274q0 -269 165.5 -439.5t425.5 -170.5q118 0 233.5 43.5 t219.5 126.5l109 -158q-146 -98 -289 -147t-285 -49q-135 0 -260 41t-223 118q-140 108 -212.5 267t-72.5 360zM776 446q0 -84 40.5 -128t117.5 -44q106 0 180 100.5t74 246.5q0 86 -40 133t-114 47q-106 0 -182 -105t-76 -250z" />
<glyph unicode="A" horiz-adv-x="1585" d="M-133 0l844 1493h440l264 -1493h-366l-43 272h-596l-148 -272h-395zM555 543h401l-90 575z" />
<glyph unicode="B" horiz-adv-x="1561" d="M43 0l291 1493h577q266 0 393.5 -78t127.5 -241q0 -137 -75 -240.5t-196 -134.5q98 -28 151.5 -102.5t53.5 -184.5q0 -241 -179.5 -376.5t-504.5 -135.5h-639zM477 262h228q132 0 203 63t71 181q0 75 -49 111t-150 36h-227zM604 915h215q103 0 161 52t58 143 q0 59 -40.5 90t-116.5 31h-215z" />
<glyph unicode="C" horiz-adv-x="1503" d="M74 573q0 179 57 337.5t168 289.5q131 154 315.5 237t397.5 83q116 0 233 -27.5t238 -83.5l-62 -309q-96 73 -193 107t-208 34q-231 0 -387 -178t-156 -445q0 -172 96 -270t265 -98q101 0 214.5 36.5t254.5 114.5l-66 -331q-138 -49 -265 -74t-241 -25q-301 0 -481 165 t-180 437z" />
<glyph unicode="D" horiz-adv-x="1700" d="M43 0l291 1493h405q290 0 435 -34.5t241 -115.5q97 -81 146 -196.5t49 -261.5q0 -203 -83.5 -382.5t-234.5 -301.5q-132 -109 -306.5 -155t-536.5 -46h-406zM485 291h138q269 0 426 151t157 408q0 174 -102.5 263t-304.5 89h-135z" />
<glyph unicode="E" horiz-adv-x="1399" d="M43 0l291 1493h1038l-57 -291h-653l-54 -278h615l-58 -291h-614l-66 -342h674l-55 -291h-1061z" />
<glyph unicode="F" horiz-adv-x="1399" d="M43 0l291 1493h1038l-57 -291h-653l-54 -278h615l-58 -291h-614l-123 -633h-385z" />
<glyph unicode="G" horiz-adv-x="1681" d="M74 573q0 181 57 339.5t170 289.5q138 160 325.5 239t428.5 79q134 0 270 -28t268 -83l-59 -309q-122 71 -238.5 106t-234.5 35q-258 0 -420 -172t-162 -442q0 -179 94.5 -278t266.5 -99q56 0 112 7.5t113 23.5l57 290h-235l49 258h598l-139 -718q-146 -71 -303 -105.5 t-336 -34.5q-318 0 -500 161.5t-182 440.5z" />
<glyph unicode="H" horiz-adv-x="1714" d="M43 0l291 1493h385l-111 -569h568l110 569h385l-291 -1493h-385l123 633h-567l-123 -633h-385z" />
<glyph unicode="I" horiz-adv-x="762" d="M43 0l291 1493h385l-291 -1493h-385z" />
<glyph unicode="J" horiz-adv-x="762" d="M-340 -410l57 291h60q119 0 194.5 67.5t100.5 196.5l262 1348h385l-262 -1348q-58 -292 -227.5 -423.5t-491.5 -131.5h-78z" />
<glyph unicode="K" horiz-adv-x="1587" d="M43 0l291 1493h385l-105 -537l635 537h465l-856 -725l645 -768h-452l-502 623l-121 -623h-385z" />
<glyph unicode="L" horiz-adv-x="1305" d="M43 0l291 1493h385l-234 -1202h674l-55 -291h-1061z" />
<glyph unicode="M" horiz-adv-x="2038" d="M43 0l291 1493h473l192 -793l504 793h492l-291 -1493h-365l213 1102l-518 -815h-207l-206 815l-213 -1102h-365z" />
<glyph unicode="N" horiz-adv-x="1714" d="M43 0l291 1493h430l342 -1034l201 1034h364l-291 -1493h-430l-342 1034l-200 -1034h-365z" />
<glyph unicode="O" horiz-adv-x="1741" d="M74 569q0 183 55 345t162 292q128 158 305.5 236t409.5 78q298 0 479.5 -165.5t181.5 -432.5q0 -182 -55.5 -344t-161.5 -291q-130 -159 -307.5 -237.5t-409.5 -78.5q-297 0 -478 165t-181 433zM479 612q0 -172 79 -267t220 -95q115 0 204.5 48.5t152.5 143.5 q60 91 92.5 205t32.5 234q0 176 -79.5 268t-230.5 92q-200 0 -335.5 -179.5t-135.5 -449.5z" />
<glyph unicode="P" horiz-adv-x="1501" d="M43 0l291 1493h639q235 0 367.5 -107.5t132.5 -298.5q0 -117 -44 -222.5t-126 -184.5q-89 -85 -212 -123.5t-309 -38.5h-254l-100 -518h-385zM584 797h213q136 0 208 64t72 186q0 81 -51.5 124t-148.5 43h-211z" />
<glyph unicode="Q" horiz-adv-x="1741" d="M74 569q0 183 55.5 345.5t161.5 291.5q129 159 305.5 236.5t409.5 77.5q298 0 479.5 -165.5t181.5 -432.5q0 -314 -152.5 -550.5t-424.5 -344.5l229 -326h-367l-192 272q-11 -1 -22 -1.5t-36 -0.5q-113 0 -213 31t-182 92q-110 81 -171.5 206.5t-61.5 268.5zM479 612 q0 -172 79 -267t220 -95q115 0 204.5 48.5t152.5 143.5q60 91 92.5 205t32.5 234q0 176 -79.5 268t-230.5 92q-200 0 -335.5 -179.5t-135.5 -449.5z" />
<glyph unicode="R" horiz-adv-x="1577" d="M43 0l291 1493h569q246 0 373 -92t127 -271q0 -181 -100 -298t-271 -134q78 -16 130 -79.5t91 -194.5l127 -424h-383l-112 371q-34 111 -82.5 152.5t-140.5 41.5h-123l-111 -565h-385zM590 831h162q131 0 198.5 61t67.5 179q0 74 -46.5 108.5t-146.5 34.5h-159z" />
<glyph unicode="S" horiz-adv-x="1475" d="M31 78l61 325q133 -77 258.5 -115t247.5 -38q132 0 214.5 54t82.5 138q0 55 -37 85.5t-162 62.5l-157 39q-174 43 -259 136t-85 241q0 233 178.5 373.5t480.5 140.5q121 0 248.5 -18.5t259.5 -55.5l-62 -316q-113 56 -223 83.5t-215 27.5q-144 0 -224.5 -45t-80.5 -125 q0 -51 35.5 -79.5t146.5 -55.5l158 -39q198 -50 290.5 -144.5t92.5 -244.5q0 -243 -184.5 -390t-495.5 -147q-145 0 -288.5 27t-280.5 80z" />
<glyph unicode="T" horiz-adv-x="1397" d="M98 1202l58 291h1376l-57 -291h-496l-234 -1202h-385l234 1202h-496z" />
<glyph unicode="U" horiz-adv-x="1663" d="M139 414q0 36 5 80.5t16 103.5l174 895h385l-174 -894q-10 -48 -14.5 -85t-4.5 -65q0 -98 52.5 -146.5t156.5 -48.5q140 0 215 78.5t111 265.5l174 895h385l-174 -895q-65 -330 -246.5 -478.5t-519.5 -148.5q-265 0 -403 113.5t-138 329.5z" />
<glyph unicode="V" horiz-adv-x="1585" d="M156 1493h366l183 -1116l618 1116h397l-843 -1493h-459z" />
<glyph unicode="W" horiz-adv-x="2259" d="M219 1493h356l46 -1085l469 1085h366l49 -1085l453 1085h383l-643 -1493h-436l-50 1135l-483 -1135h-446z" />
<glyph unicode="X" horiz-adv-x="1579" d="M-104 0l671 766l-354 727h393l230 -469l409 469h418l-647 -737l366 -756h-391l-243 500l-437 -500h-415z" />
<glyph unicode="Y" horiz-adv-x="1483" d="M129 1493h385l254 -553l444 553h445l-737 -870l-121 -623h-385l121 623z" />
<glyph unicode="Z" horiz-adv-x="1485" d="M-53 0l45 238l971 964h-760l57 291h1256l-48 -238l-968 -964h805l-58 -291h-1300z" />
<glyph unicode="[" horiz-adv-x="936" d="M-20 -270l354 1826h620l-45 -225h-278l-269 -1376h281l-45 -225h-618z" />
<glyph unicode="\" horiz-adv-x="748" d="M145 1493h222l198 -1683h-221z" />
<glyph unicode="]" horiz-adv-x="936" d="M-57 -270l43 225h280l269 1376h-281l43 225h621l-355 -1826h-620z" />
<glyph unicode="^" d="M207 936l528 557h246l528 -557h-241l-410 301l-409 -301h-242z" />
<glyph unicode="_" horiz-adv-x="1024" d="M-20 -293h1064v-190h-1064v190z" />
<glyph unicode="`" horiz-adv-x="1024" d="M268 1638h283l209 -376h-197z" />
<glyph unicode="a" horiz-adv-x="1382" d="M35 276q0 214 165.5 327.5t477.5 113.5h211l4 28q3 14 3.5 20t0.5 11q0 66 -62.5 99.5t-185.5 33.5q-111 0 -215 -23t-201 -69l54 273q112 28 229.5 42.5t243.5 14.5q249 0 370 -85.5t121 -260.5q0 -34 -4.5 -74.5t-13.5 -87.5l-125 -639h-358l30 166 q-88 -100 -186 -147.5t-213 -47.5q-159 0 -252.5 82.5t-93.5 222.5zM403 340q0 -61 40.5 -96t111.5 -35q110 0 184 66.5t99 187.5l8 41h-172q-134 0 -202.5 -41.5t-68.5 -122.5z" />
<glyph unicode="b" horiz-adv-x="1466" d="M63 0l302 1556h360l-117 -600q82 98 172 144.5t197 46.5q189 0 299 -120t110 -327q0 -129 -38.5 -251t-110.5 -222q-91 -126 -205.5 -191t-245.5 -65q-115 0 -195.5 46.5t-135.5 144.5l-33 -162h-359zM518 428q0 -92 49.5 -144.5t137.5 -52.5q135 0 223 125.5t88 321.5 q0 102 -47.5 155.5t-137.5 53.5q-138 0 -225.5 -127.5t-87.5 -331.5z" />
<glyph unicode="c" horiz-adv-x="1214" d="M76 426q0 137 52.5 266t150.5 232q109 113 250 168t325 55q85 0 169 -15.5t167 -46.5l-57 -292q-72 48 -142 73t-137 25q-175 0 -286 -117.5t-111 -300.5q0 -117 69 -181.5t195 -64.5q84 0 165 25t154 74l-55 -293q-89 -31 -179 -46.5t-181 -15.5q-264 0 -406.5 118.5 t-142.5 336.5z" />
<glyph unicode="d" horiz-adv-x="1466" d="M74 418q0 129 38.5 251t110.5 222q91 126 205.5 191t245.5 65q115 0 195.5 -46.5t136.5 -144.5l116 600h361l-303 -1556h-361l33 162q-82 -98 -172 -144.5t-197 -46.5q-189 0 -299 120t-110 327zM444 440q0 -102 47.5 -155.5t137.5 -53.5q138 0 224.5 127t86.5 332 q0 93 -48.5 145t-135.5 52q-136 0 -224 -125.5t-88 -321.5z" />
<glyph unicode="e" horiz-adv-x="1389" d="M74 434q0 128 45.5 248.5t132.5 220.5q103 120 246.5 182t318.5 62q227 0 360.5 -121t133.5 -326q0 -40 -5.5 -84.5t-17.5 -97.5l-12 -57h-838q0 -6 -1 -17.5t-1 -17.5q0 -109 65.5 -163t196.5 -54q113 0 238.5 34t263.5 101l-55 -278q-131 -48 -260.5 -71.5 t-263.5 -23.5q-262 0 -404.5 121t-142.5 342zM487 682h463q3 13 4.5 26.5t1.5 26.5q0 80 -48 127t-130 47q-105 0 -178.5 -57.5t-112.5 -169.5z" />
<glyph unicode="f" horiz-adv-x="891" d="M102 864l50 256h176l16 78q37 186 154 272t333 86h275l-47 -235h-197q-75 0 -109.5 -27.5t-47.5 -94.5l-17 -79h303l-49 -256h-303l-168 -864h-360l168 864h-177z" />
<glyph unicode="g" horiz-adv-x="1466" d="M41 -377l53 279q85 -54 170 -80.5t174 -26.5q178 0 273.5 76t128.5 242l16 77q-86 -98 -175 -144t-194 -46q-190 0 -300.5 122.5t-110.5 334.5q0 113 38.5 226.5t110.5 213.5q88 121 202 184.5t245 63.5q118 0 198.5 -46t135.5 -145l30 166h361l-189 -973 q-58 -301 -248 -445t-528 -144q-104 0 -200.5 16t-190.5 49zM449 469q0 -102 47 -155.5t137 -53.5q131 0 219 118.5t88 295.5q0 104 -47 158.5t-137 54.5q-132 0 -219.5 -119t-87.5 -299z" />
<glyph unicode="h" horiz-adv-x="1458" d="M63 0l302 1556h360l-117 -600q99 97 199 144t209 47q155 0 239 -81t84 -228q0 -32 -4.5 -71t-13.5 -85l-133 -682h-359l113 584q12 57 18.5 96.5t6.5 62.5q0 64 -35.5 99t-100.5 35q-111 0 -190.5 -86.5t-110.5 -239.5l-108 -551h-359z" />
<glyph unicode="i" horiz-adv-x="702" d="M63 0l218 1120h360l-219 -1120h-359zM307 1264l58 292h360l-57 -292h-361z" />
<glyph unicode="j" horiz-adv-x="702" d="M-262 -442l45 235h63q101 0 147.5 45.5t72.5 181.5l215 1100h360l-215 -1100q-46 -235 -171.5 -348.5t-338.5 -113.5h-178zM307 1264l58 292h360l-57 -292h-361z" />
<glyph unicode="k" horiz-adv-x="1362" d="M63 0l302 1556h360l-164 -843l483 407h422l-651 -518l473 -602h-409l-363 483l-94 -483h-359z" />
<glyph unicode="l" horiz-adv-x="702" d="M63 0l302 1556h360l-303 -1556h-359z" />
<glyph unicode="m" horiz-adv-x="2134" d="M63 0l218 1120h360l-33 -164q84 95 179 143t198 48q116 0 199 -59.5t100 -153.5q83 103 188.5 158t219.5 55q150 0 236.5 -82.5t86.5 -226.5q0 -30 -4.5 -68.5t-13.5 -87.5l-133 -682h-361l113 584l3 15q26 124 26 159q0 55 -31.5 87t-85.5 32q-103 0 -174.5 -84.5 t-102.5 -241.5l-108 -551h-361l115 584q15 75 21 113.5t6 60.5q0 56 -31 87.5t-86 31.5q-99 0 -173.5 -87.5t-103.5 -238.5l-108 -551h-359z" />
<glyph unicode="n" horiz-adv-x="1458" d="M63 0l218 1120h360l-33 -164q99 97 199 144t209 47q155 0 239 -81t84 -228q0 -32 -4.5 -71t-13.5 -85l-133 -682h-359l113 584q12 57 18.5 96.5t6.5 62.5q0 64 -35.5 99t-100.5 35q-111 0 -190.5 -86.5t-110.5 -239.5l-108 -551h-359z" />
<glyph unicode="o" horiz-adv-x="1407" d="M74 444q0 126 46 246.5t132 220.5q100 116 238.5 176t306.5 60q250 0 393 -127t143 -346q0 -127 -45 -246.5t-131 -218.5q-102 -118 -241 -178t-310 -60q-247 0 -389.5 127t-142.5 346zM449 444q0 -106 48.5 -161.5t141.5 -55.5q139 0 229 126.5t90 322.5 q0 105 -48.5 160t-141.5 55q-139 0 -229 -126t-90 -321z" />
<glyph unicode="p" horiz-adv-x="1466" d="M-20 -426l301 1546h360l-33 -164q82 98 172 144.5t197 46.5q189 0 299 -120t110 -327q0 -129 -38.5 -251t-110.5 -222q-91 -126 -205.5 -191t-245.5 -65q-115 0 -195.5 46.5t-135.5 144.5l-115 -588h-360zM518 428q0 -92 49.5 -144.5t137.5 -52.5q135 0 223 125.5 t88 321.5q0 102 -47.5 155.5t-137.5 53.5q-138 0 -225.5 -127.5t-87.5 -331.5z" />
<glyph unicode="q" horiz-adv-x="1466" d="M74 418q0 129 38.5 251t110.5 222q91 126 205.5 191t245.5 65q115 0 195.5 -46.5t136.5 -144.5l30 164h361l-301 -1546h-361l115 588q-80 -98 -170 -144.5t-197 -46.5q-189 0 -299 120t-110 327zM444 440q0 -102 47.5 -155.5t137.5 -53.5q138 0 224.5 127t86.5 332 q0 93 -48.5 145t-135.5 52q-136 0 -224 -125.5t-88 -321.5z" />
<glyph unicode="r" horiz-adv-x="1010" d="M63 0l218 1120h360l-39 -192q71 106 177.5 162.5t236.5 56.5q19 0 43 -2t57 -6l-63 -324q-37 21 -82 32t-97 11q-137 0 -227.5 -88t-122.5 -254l-102 -516h-359z" />
<glyph unicode="s" horiz-adv-x="1219" d="M20 43l54 281q97 -57 207.5 -86t226.5 -29q113 0 170 27t57 79q0 36 -32 56t-132 41l-65 12q-192 40 -274 118t-82 216q0 187 141.5 288t404.5 101q115 0 226.5 -15.5t224.5 -46.5l-53 -278q-105 50 -209 76t-197 26q-106 0 -163.5 -27.5t-57.5 -78.5q0 -30 32 -48 t126 -38l65 -12q217 -46 304 -118.5t87 -201.5q0 -195 -153 -304.5t-428 -109.5q-115 0 -235 18t-245 54z" />
<glyph unicode="t" horiz-adv-x="979" d="M88 864l49 256h178l62 318h360l-61 -318h366l-51 -256h-366l-92 -474q-4 -16 -5.5 -27t-1.5 -21q0 -46 30.5 -66t102.5 -20h185l-51 -256h-301q-162 0 -247 68t-85 196q0 28 3 60t9 65l92 475h-176z" />
<glyph unicode="u" horiz-adv-x="1458" d="M123 281q0 35 4 74t12 81l131 684h359l-113 -583q-12 -57 -18 -97t-6 -63q0 -63 35 -98t100 -35q111 0 191 86t110 239l108 551h359l-217 -1120h-361l33 164q-92 -97 -193 -145t-213 -48q-153 0 -237 81t-84 229z" />
<glyph unicode="v" horiz-adv-x="1335" d="M129 1120h330l145 -782l422 782h363l-658 -1120h-379z" />
<glyph unicode="w" horiz-adv-x="1892" d="M178 1120h330l39 -770l338 770h284l41 -768l336 768h352l-512 -1120h-380l-37 770l-342 -770h-371z" />
<glyph unicode="x" horiz-adv-x="1321" d="M-84 0l537 573l-297 547h372l166 -332l291 332h389l-510 -545l312 -575h-373l-176 354l-322 -354h-389z" />
<glyph unicode="y" horiz-adv-x="1335" d="M0 -442l37 235h113q88 0 136.5 29.5t86.5 103.5l33 60l-271 1134h338l154 -776l397 776h383l-709 -1226q-119 -207 -220 -271.5t-261 -64.5h-217z" />
<glyph unicode="z" horiz-adv-x="1192" d="M-18 0l47 250l700 614h-555l49 256h977l-49 -250l-698 -614h579l-49 -256h-1001z" />
<glyph unicode="{" horiz-adv-x="1458" d="M217 494l45 223h62q141 0 206.5 58t94.5 208l39 205q37 193 153.5 280.5t335.5 87.5h217l-43 -225h-70q-139 0 -190.5 -43.5t-79.5 -185.5l-33 -166q-30 -156 -89 -227.5t-173 -96.5q80 -21 117 -66t37 -122q0 -30 -4 -63.5t-13 -73.5l-32 -166q-9 -46 -12 -70t-3 -41 q0 -67 40.5 -93t156.5 -26h68l-43 -225h-218q-179 0 -269.5 61.5t-90.5 184.5q0 22 3.5 52t10.5 70l37 193q6 30 9 57.5t3 49.5q0 88 -45.5 124t-162.5 36h-64z" />
<glyph unicode="|" horiz-adv-x="748" d="M260 -483v2048h227v-2048h-227z" />
<glyph unicode="}" horiz-adv-x="1458" d="M90 -334l43 225h70q140 0 191.5 44.5t78.5 185.5l33 166q30 155 89.5 227t174.5 98q-80 19 -118 64t-38 123q0 24 4.5 58t12.5 79l33 166q8 42 11 67t3 43q0 68 -40.5 93.5t-156.5 25.5h-67l43 225h219q179 0 268.5 -61t89.5 -184q0 -28 -3.5 -58.5t-10.5 -64.5l-39 -205 q-6 -30 -9 -57t-3 -49q0 -88 46.5 -124t162.5 -36h63l-45 -223h-61q-141 0 -206.5 -58.5t-94.5 -208.5l-37 -192q-37 -193 -154 -281t-336 -88h-217z" />
<glyph unicode="~" d="M217 434v244q107 80 196 114.5t185 34.5q107 0 250 -58q15 -6 22 -9t22 -9q155 -61 249 -61q86 0 170.5 37.5t187.5 122.5v-244q-106 -80 -195.5 -114.5t-185.5 -34.5q-107 0 -250 58q-14 6 -22 9q-7 3 -22 9q-155 61 -249 61q-88 0 -174 -38.5t-184 -121.5z" />
<glyph unicode="&#xa1;" horiz-adv-x="934" d="M141 0l113 573l131 418h258l-29 -418l-112 -573h-361zM362 1137l70 356h361l-70 -356h-361z" />
<glyph unicode="&#xa2;" horiz-adv-x="1425" d="M137 414q0 291 182 492t478 235l55 291h162l-55 -287q68 -2 141 -17t149 -43l-57 -292q-75 50 -142.5 74t-131.5 24h-9l-128 -664q89 2 168.5 26.5t150.5 72.5l-56 -293q-72 -25 -150 -40t-163 -20l-55 -286h-162l55 290q-201 22 -316.5 138.5t-115.5 298.5zM516 473 q0 -74 28.5 -128.5t80.5 -80.5l116 592q-102 -46 -163.5 -150.5t-61.5 -232.5z" />
<glyph unicode="&#xa3;" horiz-adv-x="1425" d="M14 0l52 266h225l63 326h-192l45 239h194l33 170q52 270 203 394.5t426 124.5q92 0 180 -13.5t172 -40.5l-55 -286q-59 37 -129 57t-141 20q-125 0 -195 -61.5t-96 -194.5l-33 -170h373l-45 -239h-375l-64 -326h541l-51 -266h-1131z" />
<glyph unicode="&#xa4;" horiz-adv-x="1303" d="M74 215l207 207q-28 49 -42 102.5t-14 116.5t15 117t45 100l-209 205l153 154l207 -207q48 30 102 44.5t115 14.5q54 0 108 -13.5t111 -41.5l207 207l152 -154l-207 -207q29 -55 43 -110t14 -109q0 -63 -14.5 -115.5t-44.5 -99.5l207 -207l-154 -153l-207 206 q-46 -30 -99 -44.5t-116 -14.5q-58 0 -112 13.5t-107 41.5l-207 -207zM434 641q0 -93 63 -156t156 -63q91 0 155 63.5t64 155.5t-63.5 155.5t-155.5 63.5q-91 0 -155 -63.5t-64 -155.5z" />
<glyph unicode="&#xa5;" horiz-adv-x="1425" d="M12 416l39 194h445l14 76l-29 76h-401l37 192h291l-215 539h368l195 -500l385 500h405l-440 -539h293l-37 -192h-408l-59 -76l-18 -76h454l-37 -194h-454l-82 -416h-381l82 416h-447z" />
<glyph unicode="&#xa6;" horiz-adv-x="748" d="M260 -350v758h227v-758h-227zM260 674v758h227v-758h-227z" />
<glyph unicode="&#xa7;" horiz-adv-x="1024" d="M-68 -137l48 237q102 -43 182 -64.5t141 -21.5q77 0 125.5 31.5t48.5 79.5q0 31 -24 54.5t-103 60.5l-135 61q-119 54 -175 127.5t-56 175.5q0 123 73.5 218.5t214.5 154.5q-52 41 -77 87t-25 99q0 156 138.5 256.5t359.5 100.5q83 0 169 -14.5t175 -43.5l-43 -227 q-90 40 -162 59t-133 19q-80 0 -127 -30.5t-47 -80.5q0 -30 24.5 -55t81.5 -51l90 -41q175 -78 239 -153.5t64 -186.5q0 -123 -77 -218t-224 -153q57 -36 84 -80t27 -98q0 -162 -141 -261.5t-377 -99.5q-84 0 -174 14.5t-185 43.5zM279 682q0 -61 48.5 -104t211.5 -107 q80 27 124 72.5t44 101.5q0 61 -57 107.5t-206 101.5q-80 -21 -122.5 -65.5t-42.5 -106.5z" />
<glyph unicode="&#xa8;" horiz-adv-x="1024" d="M311 1339l47 246h238l-49 -246h-236zM707 1339l49 246h235l-49 -246h-235z" />
<glyph unicode="&#xa9;" horiz-adv-x="2048" d="M283 741q0 154 54 285t163 240t240.5 164t283.5 55t283.5 -55t240.5 -164t163 -240t54 -285q0 -152 -54 -282.5t-163 -239.5t-240.5 -164t-283.5 -55t-283.5 55t-240.5 164t-163 239.5t-54 282.5zM434 741q0 -121 43.5 -224.5t130.5 -190.5q86 -86 190.5 -129t225.5 -43 q123 0 226 42.5t190 129.5t130.5 190.5t43.5 224.5q0 122 -43.5 225.5t-130.5 190.5q-88 88 -191.5 131t-224.5 43t-225 -43.5t-191 -130.5t-130.5 -190.5t-43.5 -225.5zM600 741q0 195 127 311.5t338 116.5q69 0 133 -10.5t125 -32.5v-215q-57 37 -112.5 54.5t-112.5 17.5 q-113 0 -176.5 -64t-63.5 -178q0 -115 63 -178t177 -63q64 0 121.5 18t103.5 53v-213q-65 -22 -130.5 -33.5t-127.5 -11.5q-211 0 -338 117t-127 311z" />
<glyph unicode="&#xaa;" horiz-adv-x="1155" d="M88 373l39 200h815l-39 -200h-815zM178 907q0 155 123.5 233.5t366.5 78.5h141l4 20q1 4 1.5 9t0.5 16q0 44 -38.5 67t-114.5 23q-88 0 -175 -17.5t-172 -52.5l35 180q98 28 185.5 42t162.5 14q186 0 283.5 -64t97.5 -186q0 -31 -2.5 -56.5t-7.5 -48.5l-86 -448h-248 l25 125q-66 -76 -141.5 -111t-176.5 -35q-125 0 -194.5 55.5t-69.5 155.5zM432 954q0 -44 31 -70t84 -26q84 0 149 56.5t82 144.5l4 22h-90q-148 0 -204 -28.5t-56 -98.5z" />
<glyph unicode="&#xab;" horiz-adv-x="1331" d="M125 506l37 186l565 371l-49 -252l-346 -229l258 -222l-43 -223zM614 506l37 186l566 371l-50 -252l-346 -229l258 -222l-43 -223z" />
<glyph unicode="&#xac;" d="M217 672v237h1282v-622h-235v385h-1047z" />
<glyph unicode="&#xad;" horiz-adv-x="850" d="M51 444l58 291h628l-57 -291h-629z" />
<glyph unicode="&#xae;" horiz-adv-x="2048" d="M283 741q0 154 54 285t163 240t240.5 164t283.5 55t283.5 -55t240.5 -164t163 -240t54 -285q0 -152 -54 -282.5t-163 -239.5t-240.5 -164t-283.5 -55t-283.5 55t-240.5 164t-163 239.5t-54 282.5zM434 741q0 -121 43.5 -224.5t130.5 -190.5q86 -86 190.5 -129t225.5 -43 q123 0 226 42.5t190 129.5t130.5 190.5t43.5 224.5q0 122 -43.5 225.5t-130.5 190.5q-88 88 -191.5 131t-224.5 43t-225 -43.5t-191 -130.5t-130.5 -190.5t-43.5 -225.5zM719 338v836h285q176 0 263 -59.5t87 -180.5q0 -86 -52.5 -142t-148.5 -73q41 -22 76.5 -62t64.5 -98 l111 -221h-229l-107 213q-38 78 -67 110.5t-58 32.5h-12v-356h-213zM932 829h35q78 0 117.5 26.5t39.5 78.5t-38.5 77t-118.5 25h-35v-207z" />
<glyph unicode="&#xaf;" horiz-adv-x="1024" d="M317 1368l37 188h631l-37 -188h-631z" />
<glyph unicode="&#xb0;" horiz-adv-x="1024" d="M178 1200q0 141 96.5 237.5t237.5 96.5q66 0 127 -25.5t109 -72.5q47 -48 71.5 -108t24.5 -128q0 -67 -24.5 -127.5t-69.5 -105.5q-48 -48 -110 -73.5t-130 -25.5q-141 0 -236.5 95.5t-95.5 236.5zM340 1200q0 -72 49.5 -121t122.5 -49q72 0 122 49.5t50 120.5 q0 72 -50.5 122t-121.5 50q-72 0 -122 -50t-50 -122z" />
<glyph unicode="&#xb1;" d="M217 0v238h1282v-238h-1282zM217 694v236h522v354h238v-354h522v-236h-522v-354h-238v354h-522z" />
<glyph unicode="&#xb2;" horiz-adv-x="897" d="M92 668l31 153l366 266q80 58 119 107.5t39 91.5q0 40 -32.5 63t-90.5 23q-68 0 -141.5 -23t-144.5 -67l36 186q83 26 157.5 39t143.5 13q149 0 228.5 -54.5t79.5 -154.5q0 -79 -54 -153.5t-174 -158.5l-231 -163h377l-33 -168h-676z" />
<glyph unicode="&#xb3;" horiz-adv-x="897" d="M82 700l33 172q58 -36 117.5 -54.5t119.5 -18.5q109 0 170.5 38t61.5 105q0 54 -49.5 79.5t-153.5 25.5h-76l27 137h86q106 0 162.5 29t56.5 83q0 38 -38 57t-112 19q-54 0 -117.5 -13t-140.5 -40l31 166q72 17 146 26t147 9q155 0 238 -50t83 -143q0 -81 -56.5 -137 t-151.5 -70q75 -13 114 -59.5t39 -122.5q0 -137 -117 -211t-333 -74q-80 0 -152.5 12t-134.5 35z" />
<glyph unicode="&#xb4;" horiz-adv-x="1024" d="M465 1262l346 376h293l-438 -376h-201z" />
<glyph unicode="&#xb5;" horiz-adv-x="1507" d="M-55 -428l301 1548h360l-127 -651q-4 -21 -6 -41t-2 -37q0 -73 43 -112t125 -39q102 0 162 56t84 173l127 651h360l-145 -749q-4 -21 -6 -38.5t-2 -31.5q0 -29 13.5 -43t41.5 -14q17 0 36.5 5.5t39.5 16.5l-50 -250q-57 -23 -106 -34t-94 -11q-88 0 -137.5 38t-69.5 120 q-62 -79 -137.5 -118.5t-163.5 -39.5q-74 0 -120.5 23.5t-68.5 71.5l-96 -494h-362z" />
<glyph unicode="&#xb6;" horiz-adv-x="1303" d="M152 1001q0 215 156.5 353.5t406.5 138.5h520l-328 -1690h-190l299 1543h-189l-301 -1543h-188l164 846q-168 20 -259 112t-91 240z" />
<glyph unicode="&#xb7;" horiz-adv-x="778" d="M172 518l76 387h360l-76 -387h-360z" />
<glyph unicode="&#xb8;" horiz-adv-x="1024" d="M45 -375l29 156q40 -17 80.5 -26t78.5 -9q66 0 104 28.5t38 75.5q0 26 -13.5 60.5t-44.5 89.5h142q37 -52 54 -96t17 -86q0 -104 -75.5 -161.5t-212.5 -57.5q-49 0 -97.5 6.5t-99.5 19.5z" />
<glyph unicode="&#xb9;" horiz-adv-x="897" d="M137 668l31 157h205l102 521l-233 -52l30 160l244 49h219l-133 -678h207l-31 -157h-641z" />
<glyph unicode="&#xba;" horiz-adv-x="1155" d="M94 373l39 200h823l-38 -200h-824zM178 1032q0 217 149 352.5t392 135.5q183 0 290 -90.5t107 -243.5q0 -219 -147.5 -353.5t-390.5 -134.5q-182 0 -291 91.5t-109 242.5zM465 1024q0 -76 35 -116t102 -40q99 0 164 92t65 234q0 75 -35.5 115.5t-101.5 40.5 q-99 0 -164 -92.5t-65 -233.5z" />
<glyph unicode="&#xbb;" horiz-adv-x="1331" d="M117 135l49 254l344 229l-256 222l43 223l420 -371l-35 -186zM606 135l49 254l344 229l-258 222l45 223l420 -371l-35 -186z" />
<glyph unicode="&#xbc;" horiz-adv-x="2120" d="M114 668l31 157h205l102 521l-233 -52l30 160l244 49h219l-133 -678h207l-31 -157h-641zM349 -29l1235 1549h245l-1235 -1549h-245zM1152 162l33 168l471 505h248l-101 -518h137l-30 -155h-137l-31 -162h-230l31 162h-391zM1334 317h239l63 323z" />
<glyph unicode="&#xbd;" horiz-adv-x="2120" d="M114 668l31 157h205l102 521l-233 -52l30 160l244 49h219l-133 -678h207l-31 -157h-641zM349 -29l1235 1549h245l-1235 -1549h-245zM1331 0l31 153l366 266q80 58 119 107.5t39 91.5q0 40 -32.5 63t-90.5 23q-68 0 -141.5 -23t-144.5 -67l36 186q83 26 157.5 39t143.5 13 q149 0 228.5 -54.5t79.5 -154.5q0 -79 -54 -153.5t-174 -158.5l-231 -163h377l-33 -168h-676z" />
<glyph unicode="&#xbe;" horiz-adv-x="2120" d="M96 700l33 172q58 -36 117.5 -54.5t119.5 -18.5q109 0 170.5 38t61.5 105q0 54 -49.5 79.5t-153.5 25.5h-76l27 137h86q106 0 162.5 29t56.5 83q0 38 -38 57t-112 19q-54 0 -117.5 -13t-140.5 -40l31 166q72 17 146 26t147 9q155 0 238 -50t83 -143q0 -81 -56.5 -137 t-151.5 -70q75 -13 114 -59.5t39 -122.5q0 -137 -117 -211t-333 -74q-80 0 -152.5 12t-134.5 35zM349 -29l1235 1549h245l-1235 -1549h-245zM1152 162l33 168l471 505h248l-101 -518h137l-30 -155h-137l-31 -162h-230l31 162h-391zM1334 317h239l63 323z" />
<glyph unicode="&#xbf;" horiz-adv-x="1188" d="M76 293q0 119 53 213t180 196l76 60q83 65 111 102.5t36 79.5l9 45h360l-10 -51q-15 -80 -58 -141.5t-174 -163.5l-75 -60q-80 -61 -115 -113t-35 -106q0 -57 40 -87.5t116 -30.5q80 0 181.5 34t215.5 99l-61 -314q-127 -42 -232.5 -62t-201.5 -20q-195 0 -305.5 85.5 t-110.5 234.5zM569 1137l70 356h360l-69 -356h-361z" />
<glyph unicode="&#xc0;" horiz-adv-x="1585" d="M-133 0l844 1493h440l264 -1493h-366l-43 272h-596l-148 -272h-395zM555 543h401l-90 575zM676 1899h264l144 -264h-178z" />
<glyph unicode="&#xc1;" horiz-adv-x="1585" d="M-133 0l844 1493h440l264 -1493h-366l-43 272h-596l-148 -272h-395zM555 543h401l-90 575zM789 1635l246 264h280l-319 -264h-207z" />
<glyph unicode="&#xc2;" horiz-adv-x="1585" d="M-133 0l844 1493h440l264 -1493h-366l-43 272h-596l-148 -272h-395zM555 543h401l-90 575zM555 1635l244 264h348l152 -264h-170l-164 161l-231 -161h-179z" />
<glyph unicode="&#xc3;" horiz-adv-x="1585" d="M-133 0l844 1493h440l264 -1493h-366l-43 272h-596l-148 -272h-395zM555 543h401l-90 575zM582 1635q26 128 91.5 197t160.5 69q37 0 69.5 -12t67.5 -39l53 -41q16 -13 34 -20t34 -7q39 0 65.5 30.5t36.5 88.5h138q-26 -128 -91.5 -197t-158.5 -69q-38 0 -70 11t-70 40 l-49 37q-24 19 -40.5 25.5t-34.5 6.5q-36 0 -62 -32t-37 -88h-137z" />
<glyph unicode="&#xc4;" horiz-adv-x="1585" d="M-133 0l844 1493h440l264 -1493h-366l-43 272h-596l-148 -272h-395zM555 543h401l-90 575zM623 1653l47 246h236l-47 -246h-236zM1018 1653l47 246h238l-49 -246h-236z" />
<glyph unicode="&#xc5;" horiz-adv-x="1585" d="M-133 0l825 1458q-26 37 -38.5 75.5t-12.5 82.5q0 117 83.5 201t201.5 84q117 0 200.5 -84t83.5 -201q0 -48 -13 -86.5t-42 -73.5l260 -1456h-366l-43 272h-596l-148 -272h-395zM555 543h401l-90 575zM795 1616q0 -54 38.5 -92.5t92.5 -38.5t92.5 38.5t38.5 92.5 t-39 92.5t-92 38.5q-54 0 -92.5 -38.5t-38.5 -92.5z" />
<glyph unicode="&#xc6;" horiz-adv-x="2222" d="M-160 0l934 1493h1421l-57 -291h-653l-53 -278h614l-57 -291h-615l-65 -342h673l-55 -291h-1061l68 350h-492l-217 -350h-385zM610 627h377l119 610h-121z" />
<glyph unicode="&#xc7;" horiz-adv-x="1503" d="M74 573q0 179 57 337.5t168 289.5q131 154 315.5 237t397.5 83q116 0 233 -27.5t238 -83.5l-62 -309q-96 73 -193 107t-208 34q-231 0 -387 -178t-156 -445q0 -172 96 -270t265 -98q101 0 214.5 36.5t254.5 114.5l-66 -331q-138 -49 -265 -74t-241 -25q-301 0 -481 165 t-180 437zM451 -375l29 156q40 -17 80.5 -26t78.5 -9q66 0 104 28.5t38 75.5q0 26 -13.5 60.5t-44.5 89.5h142q37 -52 54 -96t17 -86q0 -104 -75.5 -161.5t-212.5 -57.5q-49 0 -97.5 6.5t-99.5 19.5z" />
<glyph unicode="&#xc8;" horiz-adv-x="1399" d="M43 0l291 1493h1038l-57 -291h-653l-54 -278h615l-58 -291h-614l-66 -342h674l-55 -291h-1061zM635 1899h264l144 -264h-178z" />
<glyph unicode="&#xc9;" horiz-adv-x="1399" d="M43 0l291 1493h1038l-57 -291h-653l-54 -278h615l-58 -291h-614l-66 -342h674l-55 -291h-1061zM748 1635l246 264h280l-319 -264h-207z" />
<glyph unicode="&#xca;" horiz-adv-x="1399" d="M43 0l291 1493h1038l-57 -291h-653l-54 -278h615l-58 -291h-614l-66 -342h674l-55 -291h-1061zM514 1635l244 264h348l152 -264h-170l-164 161l-231 -161h-179z" />
<glyph unicode="&#xcb;" horiz-adv-x="1399" d="M43 0l291 1493h1038l-57 -291h-653l-54 -278h615l-58 -291h-614l-66 -342h674l-55 -291h-1061zM582 1653l47 246h236l-47 -246h-236zM977 1653l47 246h238l-49 -246h-236z" />
<glyph unicode="&#xcc;" horiz-adv-x="762" d="M43 0l291 1493h385l-291 -1493h-385zM278 1899h264l144 -264h-178z" />
<glyph unicode="&#xcd;" horiz-adv-x="762" d="M43 0l291 1493h385l-291 -1493h-385zM391 1635l246 264h280l-319 -264h-207z" />
<glyph unicode="&#xce;" horiz-adv-x="762" d="M43 0l291 1493h385l-291 -1493h-385zM157 1635l244 264h348l152 -264h-170l-164 161l-231 -161h-179z" />
<glyph unicode="&#xcf;" horiz-adv-x="762" d="M43 0l291 1493h385l-291 -1493h-385zM225 1653l47 246h236l-47 -246h-236zM620 1653l47 246h238l-49 -246h-236z" />
<glyph unicode="&#xd0;" horiz-adv-x="1731" d="M-4 643l51 260h205l115 590h405q290 0 435 -34.5t241 -115.5q97 -81 147 -197t50 -261q0 -201 -84.5 -381t-235.5 -303q-132 -109 -306.5 -155t-537.5 -46h-405l125 643h-205zM518 291h137q271 0 428.5 151.5t157.5 407.5q0 174 -103.5 263t-306.5 89h-135l-57 -299h246 l-51 -260h-246z" />
<glyph unicode="&#xd1;" horiz-adv-x="1714" d="M43 0l291 1493h430l342 -1034l201 1034h364l-291 -1493h-430l-342 1034l-200 -1034h-365zM631 1635q26 128 91.5 197t160.5 69q37 0 69.5 -12t67.5 -39l53 -41q16 -13 34 -20t34 -7q39 0 65.5 30.5t36.5 88.5h138q-26 -128 -91.5 -197t-158.5 -69q-38 0 -70 11t-70 40 l-49 37q-24 19 -40.5 25.5t-34.5 6.5q-36 0 -62 -32t-37 -88h-137z" />
<glyph unicode="&#xd2;" horiz-adv-x="1741" d="M74 569q0 183 55 345t162 292q128 158 305.5 236t409.5 78q298 0 479.5 -165.5t181.5 -432.5q0 -182 -55.5 -344t-161.5 -291q-130 -159 -307.5 -237.5t-409.5 -78.5q-297 0 -478 165t-181 433zM479 612q0 -172 79 -267t220 -95q115 0 204.5 48.5t152.5 143.5 q60 91 92.5 205t32.5 234q0 176 -79.5 268t-230.5 92q-200 0 -335.5 -179.5t-135.5 -449.5zM796 1899h264l144 -264h-178z" />
<glyph unicode="&#xd3;" horiz-adv-x="1741" d="M74 569q0 183 55 345t162 292q128 158 305.5 236t409.5 78q298 0 479.5 -165.5t181.5 -432.5q0 -182 -55.5 -344t-161.5 -291q-130 -159 -307.5 -237.5t-409.5 -78.5q-297 0 -478 165t-181 433zM479 612q0 -172 79 -267t220 -95q115 0 204.5 48.5t152.5 143.5 q60 91 92.5 205t32.5 234q0 176 -79.5 268t-230.5 92q-200 0 -335.5 -179.5t-135.5 -449.5zM909 1635l246 264h280l-319 -264h-207z" />
<glyph unicode="&#xd4;" horiz-adv-x="1741" d="M74 569q0 183 55 345t162 292q128 158 305.5 236t409.5 78q298 0 479.5 -165.5t181.5 -432.5q0 -182 -55.5 -344t-161.5 -291q-130 -159 -307.5 -237.5t-409.5 -78.5q-297 0 -478 165t-181 433zM479 612q0 -172 79 -267t220 -95q115 0 204.5 48.5t152.5 143.5 q60 91 92.5 205t32.5 234q0 176 -79.5 268t-230.5 92q-200 0 -335.5 -179.5t-135.5 -449.5zM675 1635l244 264h348l152 -264h-170l-164 161l-231 -161h-179z" />
<glyph unicode="&#xd5;" horiz-adv-x="1741" d="M74 569q0 183 55 345t162 292q128 158 305.5 236t409.5 78q298 0 479.5 -165.5t181.5 -432.5q0 -182 -55.5 -344t-161.5 -291q-130 -159 -307.5 -237.5t-409.5 -78.5q-297 0 -478 165t-181 433zM479 612q0 -172 79 -267t220 -95q115 0 204.5 48.5t152.5 143.5 q60 91 92.5 205t32.5 234q0 176 -79.5 268t-230.5 92q-200 0 -335.5 -179.5t-135.5 -449.5zM702 1635q26 128 91.5 197t160.5 69q37 0 69.5 -12t67.5 -39l53 -41q16 -13 34 -20t34 -7q39 0 65.5 30.5t36.5 88.5h138q-26 -128 -91.5 -197t-158.5 -69q-38 0 -70 11t-70 40 l-49 37q-24 19 -40.5 25.5t-34.5 6.5q-36 0 -62 -32t-37 -88h-137z" />
<glyph unicode="&#xd6;" horiz-adv-x="1741" d="M74 569q0 183 55 345t162 292q128 158 305.5 236t409.5 78q298 0 479.5 -165.5t181.5 -432.5q0 -182 -55.5 -344t-161.5 -291q-130 -159 -307.5 -237.5t-409.5 -78.5q-297 0 -478 165t-181 433zM479 612q0 -172 79 -267t220 -95q115 0 204.5 48.5t152.5 143.5 q60 91 92.5 205t32.5 234q0 176 -79.5 268t-230.5 92q-200 0 -335.5 -179.5t-135.5 -449.5zM743 1653l47 246h236l-47 -246h-236zM1138 1653l47 246h238l-49 -246h-236z" />
<glyph unicode="&#xd7;" d="M256 209l434 432l-434 434l168 168l434 -434l434 434l168 -168l-434 -434l434 -432l-168 -168l-434 432l-434 -432z" />
<glyph unicode="&#xd8;" horiz-adv-x="1741" d="M-96 45l254 213q-42 74 -63 152.5t-21 158.5q0 183 55 345t162 292q129 159 305.5 236.5t409.5 77.5q148 0 264.5 -39t204.5 -117l258 215l102 -123l-258 -213q45 -76 67.5 -157t22.5 -166q0 -182 -55.5 -344t-161.5 -291q-130 -158 -308 -236t-409 -78q-147 0 -265 41 t-210 123l-252 -213zM481 612q0 -22 4 -74v-6l711 596q-40 57 -101 85t-143 28q-202 0 -336.5 -178.5t-134.5 -450.5zM539 371q39 -59 100 -90t139 -31q115 0 204.5 48.5t152.5 143.5q60 92 93.5 206.5t33.5 230.5q0 25 -7 78q-1 8 -2 12z" />
<glyph unicode="&#xd9;" horiz-adv-x="1663" d="M139 414q0 36 5 80.5t16 103.5l174 895h385l-174 -894q-10 -48 -14.5 -85t-4.5 -65q0 -98 52.5 -146.5t156.5 -48.5q140 0 215 78.5t111 265.5l174 895h385l-174 -895q-65 -330 -246.5 -478.5t-519.5 -148.5q-265 0 -403 113.5t-138 329.5zM717 1899h264l144 -264h-178z " />
<glyph unicode="&#xda;" horiz-adv-x="1663" d="M139 414q0 36 5 80.5t16 103.5l174 895h385l-174 -894q-10 -48 -14.5 -85t-4.5 -65q0 -98 52.5 -146.5t156.5 -48.5q140 0 215 78.5t111 265.5l174 895h385l-174 -895q-65 -330 -246.5 -478.5t-519.5 -148.5q-265 0 -403 113.5t-138 329.5zM830 1635l246 264h280 l-319 -264h-207z" />
<glyph unicode="&#xdb;" horiz-adv-x="1663" d="M139 414q0 36 5 80.5t16 103.5l174 895h385l-174 -894q-10 -48 -14.5 -85t-4.5 -65q0 -98 52.5 -146.5t156.5 -48.5q140 0 215 78.5t111 265.5l174 895h385l-174 -895q-65 -330 -246.5 -478.5t-519.5 -148.5q-265 0 -403 113.5t-138 329.5zM596 1635l244 264h348 l152 -264h-170l-164 161l-231 -161h-179z" />
<glyph unicode="&#xdc;" horiz-adv-x="1663" d="M139 414q0 36 5 80.5t16 103.5l174 895h385l-174 -894q-10 -48 -14.5 -85t-4.5 -65q0 -98 52.5 -146.5t156.5 -48.5q140 0 215 78.5t111 265.5l174 895h385l-174 -895q-65 -330 -246.5 -478.5t-519.5 -148.5q-265 0 -403 113.5t-138 329.5zM664 1653l47 246h236l-47 -246 h-236zM1059 1653l47 246h238l-49 -246h-236z" />
<glyph unicode="&#xdd;" horiz-adv-x="1483" d="M129 1493h385l254 -553l444 553h445l-737 -870l-121 -623h-385l121 623zM752 1635l246 264h280l-319 -264h-207z" />
<glyph unicode="&#xde;" horiz-adv-x="1520" d="M43 0l291 1493h385l-43 -223h246q235 0 368 -107.5t133 -298.5q0 -117 -43.5 -221.5t-126.5 -183.5q-89 -86 -213.5 -125t-308.5 -39h-246l-57 -295h-385zM541 573h204q136 0 208.5 65t72.5 187q0 82 -50.5 125t-148.5 43h-206z" />
<glyph unicode="&#xdf;" horiz-adv-x="1473" d="M63 0l216 1114q42 224 196.5 333t427.5 109q226 0 343.5 -88t117.5 -258q0 -20 -2.5 -44t-7.5 -51l-15 -73q-151 -5 -240 -51.5t-89 -118.5q0 -55 102 -127l15 -10l61 -43q84 -59 123 -128.5t39 -160.5q0 -193 -139 -312.5t-367 -119.5q-78 0 -153.5 12.5t-149.5 36.5 l49 244q56 -27 111.5 -41t107.5 -14q82 0 132 38t50 99q0 40 -23 72.5t-100 87.5l-61 43q-67 47 -97 97.5t-30 113.5q0 138 91.5 237t264.5 148q1 6 1.5 14t0.5 23q0 67 -41 102t-120 35q-102 0 -160.5 -53.5t-79.5 -165.5l-215 -1100h-359z" />
<glyph unicode="&#xe0;" horiz-adv-x="1382" d="M35 276q0 214 165.5 327.5t477.5 113.5h211l4 28q3 14 3.5 20t0.5 11q0 66 -62.5 99.5t-185.5 33.5q-111 0 -215 -23t-201 -69l54 273q112 28 229.5 42.5t243.5 14.5q249 0 370 -85.5t121 -260.5q0 -34 -4.5 -74.5t-13.5 -87.5l-125 -639h-358l30 166 q-88 -100 -186 -147.5t-213 -47.5q-159 0 -252.5 82.5t-93.5 222.5zM403 340q0 -61 40.5 -96t111.5 -35q110 0 184 66.5t99 187.5l8 41h-172q-134 0 -202.5 -41.5t-68.5 -122.5zM448 1638h283l209 -376h-197z" />
<glyph unicode="&#xe1;" horiz-adv-x="1382" d="M35 276q0 214 165.5 327.5t477.5 113.5h211l4 28q3 14 3.5 20t0.5 11q0 66 -62.5 99.5t-185.5 33.5q-111 0 -215 -23t-201 -69l54 273q112 28 229.5 42.5t243.5 14.5q249 0 370 -85.5t121 -260.5q0 -34 -4.5 -74.5t-13.5 -87.5l-125 -639h-358l30 166 q-88 -100 -186 -147.5t-213 -47.5q-159 0 -252.5 82.5t-93.5 222.5zM403 340q0 -61 40.5 -96t111.5 -35q110 0 184 66.5t99 187.5l8 41h-172q-134 0 -202.5 -41.5t-68.5 -122.5zM645 1262l346 376h293l-438 -376h-201z" />
<glyph unicode="&#xe2;" horiz-adv-x="1382" d="M35 276q0 214 165.5 327.5t477.5 113.5h211l4 28q3 14 3.5 20t0.5 11q0 66 -62.5 99.5t-185.5 33.5q-111 0 -215 -23t-201 -69l54 273q112 28 229.5 42.5t243.5 14.5q249 0 370 -85.5t121 -260.5q0 -34 -4.5 -74.5t-13.5 -87.5l-125 -639h-358l30 166 q-88 -100 -186 -147.5t-213 -47.5q-159 0 -252.5 82.5t-93.5 222.5zM397 1262l328 376h262l182 -376h-178l-156 225l-241 -225h-197zM403 340q0 -61 40.5 -96t111.5 -35q110 0 184 66.5t99 187.5l8 41h-172q-134 0 -202.5 -41.5t-68.5 -122.5z" />
<glyph unicode="&#xe3;" horiz-adv-x="1382" d="M35 276q0 214 165.5 327.5t477.5 113.5h211l4 28q3 14 3.5 20t0.5 11q0 66 -62.5 99.5t-185.5 33.5q-111 0 -215 -23t-201 -69l54 273q112 28 229.5 42.5t243.5 14.5q249 0 370 -85.5t121 -260.5q0 -34 -4.5 -74.5t-13.5 -87.5l-125 -639h-358l30 166 q-88 -100 -186 -147.5t-213 -47.5q-159 0 -252.5 82.5t-93.5 222.5zM403 340q0 -61 40.5 -96t111.5 -35q110 0 184 66.5t99 187.5l8 41h-172q-134 0 -202.5 -41.5t-68.5 -122.5zM452 1309q27 137 92.5 210.5t159.5 73.5q36 0 69.5 -13.5t70.5 -43.5l53 -43q18 -15 35 -23 t32 -8q38 0 64 33.5t37 95.5h139q-26 -136 -91 -210t-159 -74q-34 0 -64 11.5t-75 45.5l-49 37q-3 2 -10 7q-38 30 -68 30q-34 0 -60 -34.5t-36 -94.5h-140z" />
<glyph unicode="&#xe4;" horiz-adv-x="1382" d="M35 276q0 214 165.5 327.5t477.5 113.5h211l4 28q3 14 3.5 20t0.5 11q0 66 -62.5 99.5t-185.5 33.5q-111 0 -215 -23t-201 -69l54 273q112 28 229.5 42.5t243.5 14.5q249 0 370 -85.5t121 -260.5q0 -34 -4.5 -74.5t-13.5 -87.5l-125 -639h-358l30 166 q-88 -100 -186 -147.5t-213 -47.5q-159 0 -252.5 82.5t-93.5 222.5zM403 340q0 -61 40.5 -96t111.5 -35q110 0 184 66.5t99 187.5l8 41h-172q-134 0 -202.5 -41.5t-68.5 -122.5zM491 1339l47 246h238l-49 -246h-236zM887 1339l49 246h235l-49 -246h-235z" />
<glyph unicode="&#xe5;" horiz-adv-x="1382" d="M35 276q0 214 165.5 327.5t477.5 113.5h211l4 28q3 14 3.5 20t0.5 11q0 66 -62.5 99.5t-185.5 33.5q-111 0 -215 -23t-201 -69l54 273q112 28 229.5 42.5t243.5 14.5q249 0 370 -85.5t121 -260.5q0 -34 -4.5 -74.5t-13.5 -87.5l-125 -639h-358l30 166 q-88 -100 -186 -147.5t-213 -47.5q-159 0 -252.5 82.5t-93.5 222.5zM403 340q0 -61 40.5 -96t111.5 -35q110 0 184 66.5t99 187.5l8 41h-172q-134 0 -202.5 -41.5t-68.5 -122.5zM557 1524q0 120 82.5 202t202.5 82q119 0 201.5 -82t82.5 -202t-82.5 -202.5t-201.5 -82.5 q-120 0 -202.5 82.5t-82.5 202.5zM692 1524q0 -65 42.5 -107.5t107.5 -42.5t107 42t42 108q0 65 -42 107t-107 42q-66 0 -108 -42t-42 -107z" />
<glyph unicode="&#xe6;" horiz-adv-x="2146" d="M35 274q0 216 165.5 329.5t481.5 113.5h205l6 29q3 13 3.5 19t0.5 11q0 66 -62 99.5t-182 33.5q-114 0 -217.5 -23t-197.5 -69l53 273q117 28 228.5 42.5t215.5 14.5q149 0 247 -36.5t155 -113.5q95 77 201.5 113.5t236.5 36.5q223 0 356 -122t133 -323q0 -45 -5 -91 t-15 -93l-14 -57h-836q0 -6 -1 -17.5t-1 -17.5q0 -109 65.5 -163t196.5 -54q112 0 236.5 33.5t263.5 101.5l-53 -278q-131 -48 -261.5 -71.5t-265.5 -23.5q-173 0 -291 51.5t-184 155.5q-117 -105 -240.5 -156t-261.5 -51q-170 0 -266 81t-96 222zM403 340q0 -61 40.5 -96 t111.5 -35q110 0 184 66.5t99 187.5l8 41h-172q-134 0 -202.5 -41.5t-68.5 -122.5zM1243 682h463q3 13 4.5 26.5t1.5 26.5q0 80 -48.5 127t-129.5 47q-105 0 -179.5 -58t-111.5 -169z" />
<glyph unicode="&#xe7;" horiz-adv-x="1214" d="M76 426q0 137 52.5 266t150.5 232q109 113 250 168t325 55q85 0 169 -15.5t167 -46.5l-57 -292q-72 48 -142 73t-137 25q-175 0 -286 -117.5t-111 -300.5q0 -117 69 -181.5t195 -64.5q84 0 165 25t154 74l-55 -293q-89 -31 -179 -46.5t-181 -15.5q-264 0 -406.5 118.5 t-142.5 336.5zM276 -375l29 156q40 -17 80.5 -26t78.5 -9q66 0 104 28.5t38 75.5q0 26 -13.5 60.5t-44.5 89.5h142q37 -52 54 -96t17 -86q0 -104 -75.5 -161.5t-212.5 -57.5q-49 0 -97.5 6.5t-99.5 19.5z" />
<glyph unicode="&#xe8;" horiz-adv-x="1389" d="M74 434q0 128 45.5 248.5t132.5 220.5q103 120 246.5 182t318.5 62q227 0 360.5 -121t133.5 -326q0 -40 -5.5 -84.5t-17.5 -97.5l-12 -57h-838q0 -6 -1 -17.5t-1 -17.5q0 -109 65.5 -163t196.5 -54q113 0 238.5 34t263.5 101l-55 -278q-131 -48 -260.5 -71.5 t-263.5 -23.5q-262 0 -404.5 121t-142.5 342zM487 682h463q3 13 4.5 26.5t1.5 26.5q0 80 -48 127t-130 47q-105 0 -178.5 -57.5t-112.5 -169.5zM495 1638h283l209 -376h-197z" />
<glyph unicode="&#xe9;" horiz-adv-x="1389" d="M74 434q0 128 45.5 248.5t132.5 220.5q103 120 246.5 182t318.5 62q227 0 360.5 -121t133.5 -326q0 -40 -5.5 -84.5t-17.5 -97.5l-12 -57h-838q0 -6 -1 -17.5t-1 -17.5q0 -109 65.5 -163t196.5 -54q113 0 238.5 34t263.5 101l-55 -278q-131 -48 -260.5 -71.5 t-263.5 -23.5q-262 0 -404.5 121t-142.5 342zM487 682h463q3 13 4.5 26.5t1.5 26.5q0 80 -48 127t-130 47q-105 0 -178.5 -57.5t-112.5 -169.5zM692 1262l346 376h293l-438 -376h-201z" />
<glyph unicode="&#xea;" horiz-adv-x="1389" d="M74 434q0 128 45.5 248.5t132.5 220.5q103 120 246.5 182t318.5 62q227 0 360.5 -121t133.5 -326q0 -40 -5.5 -84.5t-17.5 -97.5l-12 -57h-838q0 -6 -1 -17.5t-1 -17.5q0 -109 65.5 -163t196.5 -54q113 0 238.5 34t263.5 101l-55 -278q-131 -48 -260.5 -71.5 t-263.5 -23.5q-262 0 -404.5 121t-142.5 342zM444 1262l328 376h262l182 -376h-178l-156 225l-241 -225h-197zM487 682h463q3 13 4.5 26.5t1.5 26.5q0 80 -48 127t-130 47q-105 0 -178.5 -57.5t-112.5 -169.5z" />
<glyph unicode="&#xeb;" horiz-adv-x="1389" d="M74 434q0 128 45.5 248.5t132.5 220.5q103 120 246.5 182t318.5 62q227 0 360.5 -121t133.5 -326q0 -40 -5.5 -84.5t-17.5 -97.5l-12 -57h-838q0 -6 -1 -17.5t-1 -17.5q0 -109 65.5 -163t196.5 -54q113 0 238.5 34t263.5 101l-55 -278q-131 -48 -260.5 -71.5 t-263.5 -23.5q-262 0 -404.5 121t-142.5 342zM487 682h463q3 13 4.5 26.5t1.5 26.5q0 80 -48 127t-130 47q-105 0 -178.5 -57.5t-112.5 -169.5zM538 1339l47 246h238l-49 -246h-236zM934 1339l49 246h235l-49 -246h-235z" />
<glyph unicode="&#xec;" horiz-adv-x="702" d="M63 0l218 1120h360l-219 -1120h-359zM127 1638h283l209 -376h-197z" />
<glyph unicode="&#xed;" horiz-adv-x="702" d="M63 0l218 1120h360l-219 -1120h-359zM324 1262l346 376h293l-438 -376h-201z" />
<glyph unicode="&#xee;" horiz-adv-x="702" d="M63 0l218 1120h360l-219 -1120h-359zM76 1262l328 376h262l182 -376h-178l-156 225l-241 -225h-197z" />
<glyph unicode="&#xef;" horiz-adv-x="702" d="M63 0l218 1120h360l-219 -1120h-359zM170 1339l47 246h238l-49 -246h-236zM566 1339l49 246h235l-49 -246h-235z" />
<glyph unicode="&#xf0;" horiz-adv-x="1407" d="M74 426q0 280 182 454.5t475 174.5q49 0 92.5 -7t79.5 -20l-151 215l-385 -108l-35 129l340 94l-137 198h352l82 -116l385 106l35 -127l-340 -94l155 -225q64 -92 96.5 -198t32.5 -222q0 -130 -45.5 -251.5t-132.5 -221.5q-101 -116 -240.5 -176t-310.5 -60 q-241 0 -385.5 125t-144.5 330zM449 451q0 -109 50 -166.5t144 -57.5q140 0 230 126.5t90 324.5q0 13 -4 53q0 7 -1 12q-52 27 -103 40.5t-103 13.5q-140 0 -221.5 -94t-81.5 -252z" />
<glyph unicode="&#xf1;" horiz-adv-x="1458" d="M63 0l218 1120h360l-33 -164q99 97 199 144t209 47q155 0 239 -81t84 -228q0 -32 -4.5 -71t-13.5 -85l-133 -682h-359l113 584q12 57 18.5 96.5t6.5 62.5q0 64 -35.5 99t-100.5 35q-111 0 -190.5 -86.5t-110.5 -239.5l-108 -551h-359zM489 1309q27 137 92.5 210.5 t159.5 73.5q36 0 69.5 -13.5t70.5 -43.5l53 -43q18 -15 35 -23t32 -8q38 0 64 33.5t37 95.5h139q-26 -136 -91 -210t-159 -74q-34 0 -64 11.5t-75 45.5l-49 37q-3 2 -10 7q-38 30 -68 30q-34 0 -60 -34.5t-36 -94.5h-140z" />
<glyph unicode="&#xf2;" horiz-adv-x="1407" d="M74 444q0 126 46 246.5t132 220.5q100 116 238.5 176t306.5 60q250 0 393 -127t143 -346q0 -127 -45 -246.5t-131 -218.5q-102 -118 -241 -178t-310 -60q-247 0 -389.5 127t-142.5 346zM449 444q0 -106 48.5 -161.5t141.5 -55.5q139 0 229 126.5t90 322.5 q0 105 -48.5 160t-141.5 55q-139 0 -229 -126t-90 -321zM461 1638h283l209 -376h-197z" />
<glyph unicode="&#xf3;" horiz-adv-x="1407" d="M74 444q0 126 46 246.5t132 220.5q100 116 238.5 176t306.5 60q250 0 393 -127t143 -346q0 -127 -45 -246.5t-131 -218.5q-102 -118 -241 -178t-310 -60q-247 0 -389.5 127t-142.5 346zM449 444q0 -106 48.5 -161.5t141.5 -55.5q139 0 229 126.5t90 322.5 q0 105 -48.5 160t-141.5 55q-139 0 -229 -126t-90 -321zM658 1262l346 376h293l-438 -376h-201z" />
<glyph unicode="&#xf4;" horiz-adv-x="1407" d="M74 444q0 126 46 246.5t132 220.5q100 116 238.5 176t306.5 60q250 0 393 -127t143 -346q0 -127 -45 -246.5t-131 -218.5q-102 -118 -241 -178t-310 -60q-247 0 -389.5 127t-142.5 346zM410 1262l328 376h262l182 -376h-178l-156 225l-241 -225h-197zM449 444 q0 -106 48.5 -161.5t141.5 -55.5q139 0 229 126.5t90 322.5q0 105 -48.5 160t-141.5 55q-139 0 -229 -126t-90 -321z" />
<glyph unicode="&#xf5;" horiz-adv-x="1407" d="M74 444q0 126 46 246.5t132 220.5q100 116 238.5 176t306.5 60q250 0 393 -127t143 -346q0 -127 -45 -246.5t-131 -218.5q-102 -118 -241 -178t-310 -60q-247 0 -389.5 127t-142.5 346zM449 444q0 -106 48.5 -161.5t141.5 -55.5q139 0 229 126.5t90 322.5 q0 105 -48.5 160t-141.5 55q-139 0 -229 -126t-90 -321zM465 1309q27 137 92.5 210.5t159.5 73.5q36 0 69.5 -13.5t70.5 -43.5l53 -43q18 -15 35 -23t32 -8q38 0 64 33.5t37 95.5h139q-26 -136 -91 -210t-159 -74q-34 0 -64 11.5t-75 45.5l-49 37q-3 2 -10 7q-38 30 -68 30 q-34 0 -60 -34.5t-36 -94.5h-140z" />
<glyph unicode="&#xf6;" horiz-adv-x="1407" d="M74 444q0 126 46 246.5t132 220.5q100 116 238.5 176t306.5 60q250 0 393 -127t143 -346q0 -127 -45 -246.5t-131 -218.5q-102 -118 -241 -178t-310 -60q-247 0 -389.5 127t-142.5 346zM449 444q0 -106 48.5 -161.5t141.5 -55.5q139 0 229 126.5t90 322.5 q0 105 -48.5 160t-141.5 55q-139 0 -229 -126t-90 -321zM504 1339l47 246h238l-49 -246h-236zM900 1339l49 246h235l-49 -246h-235z" />
<glyph unicode="&#xf7;" d="M217 524v236h1282v-236h-1282zM705 86v309h307v-309h-307zM705 889v309h307v-309h-307z" />
<glyph unicode="&#xf8;" horiz-adv-x="1407" d="M-35 10l187 164q-39 59 -58.5 127.5t-19.5 144.5q0 126 45.5 245.5t132.5 219.5q100 117 238.5 176.5t310.5 59.5q104 0 190 -23t154 -69l192 168l97 -111l-183 -162q41 -59 61.5 -128t20.5 -148q0 -127 -45 -246.5t-131 -218.5q-101 -116 -241.5 -177t-309.5 -61 q-109 0 -196.5 24.5t-155.5 74.5l-193 -172zM449 438l456 404q-23 24 -57.5 36.5t-79.5 12.5q-140 0 -224.5 -119.5t-94.5 -333.5zM498 283q25 -28 59.5 -42t81.5 -14q141 0 226.5 124t92.5 341z" />
<glyph unicode="&#xf9;" horiz-adv-x="1458" d="M123 281q0 35 4 74t12 81l131 684h359l-113 -583q-12 -57 -18 -97t-6 -63q0 -63 35 -98t100 -35q111 0 191 86t110 239l108 551h359l-217 -1120h-361l33 164q-92 -97 -193 -145t-213 -48q-153 0 -237 81t-84 229zM485 1638h283l209 -376h-197z" />
<glyph unicode="&#xfa;" horiz-adv-x="1458" d="M123 281q0 35 4 74t12 81l131 684h359l-113 -583q-12 -57 -18 -97t-6 -63q0 -63 35 -98t100 -35q111 0 191 86t110 239l108 551h359l-217 -1120h-361l33 164q-92 -97 -193 -145t-213 -48q-153 0 -237 81t-84 229zM682 1262l346 376h293l-438 -376h-201z" />
<glyph unicode="&#xfb;" horiz-adv-x="1458" d="M123 281q0 35 4 74t12 81l131 684h359l-113 -583q-12 -57 -18 -97t-6 -63q0 -63 35 -98t100 -35q111 0 191 86t110 239l108 551h359l-217 -1120h-361l33 164q-92 -97 -193 -145t-213 -48q-153 0 -237 81t-84 229zM434 1262l328 376h262l182 -376h-178l-156 225l-241 -225 h-197z" />
<glyph unicode="&#xfc;" horiz-adv-x="1458" d="M123 281q0 35 4 74t12 81l131 684h359l-113 -583q-12 -57 -18 -97t-6 -63q0 -63 35 -98t100 -35q111 0 191 86t110 239l108 551h359l-217 -1120h-361l33 164q-92 -97 -193 -145t-213 -48q-153 0 -237 81t-84 229zM528 1339l47 246h238l-49 -246h-236zM924 1339l49 246 h235l-49 -246h-235z" />
<glyph unicode="&#xfd;" horiz-adv-x="1335" d="M0 -442l37 235h113q88 0 136.5 29.5t86.5 103.5l33 60l-271 1134h338l154 -776l397 776h383l-709 -1226q-119 -207 -220 -271.5t-261 -64.5h-217zM621 1262l346 376h293l-438 -376h-201z" />
<glyph unicode="&#xfe;" horiz-adv-x="1466" d="M-20 -426l385 1982h360l-117 -600q82 98 172 144.5t197 46.5q189 0 299 -120t110 -327q0 -129 -38.5 -251t-110.5 -222q-91 -126 -205.5 -191t-245.5 -65q-115 0 -195.5 46.5t-135.5 144.5l-115 -588h-360zM518 428q0 -92 49.5 -144.5t137.5 -52.5q135 0 223 125.5 t88 321.5q0 102 -47.5 155.5t-137.5 53.5q-138 0 -225.5 -127.5t-87.5 -331.5z" />
<glyph unicode="&#xff;" horiz-adv-x="1335" d="M0 -442l37 235h113q88 0 136.5 29.5t86.5 103.5l33 60l-271 1134h338l154 -776l397 776h383l-709 -1226q-119 -207 -220 -271.5t-261 -64.5h-217zM467 1339l47 246h238l-49 -246h-236zM863 1339l49 246h235l-49 -246h-235z" />
<glyph unicode="&#x100;" horiz-adv-x="1585" d="M-133 0l844 1493h440l264 -1493h-366l-43 272h-596l-148 -272h-395zM555 543h401l-90 575zM597 1683l37 188h631l-37 -188h-631z" />
<glyph unicode="&#x101;" horiz-adv-x="1382" d="M35 276q0 214 165.5 327.5t477.5 113.5h211l4 28q3 14 3.5 20t0.5 11q0 66 -62.5 99.5t-185.5 33.5q-111 0 -215 -23t-201 -69l54 273q112 28 229.5 42.5t243.5 14.5q249 0 370 -85.5t121 -260.5q0 -34 -4.5 -74.5t-13.5 -87.5l-125 -639h-358l30 166 q-88 -100 -186 -147.5t-213 -47.5q-159 0 -252.5 82.5t-93.5 222.5zM403 340q0 -61 40.5 -96t111.5 -35q110 0 184 66.5t99 187.5l8 41h-172q-134 0 -202.5 -41.5t-68.5 -122.5zM454 1374l37 188h631l-37 -188h-631z" />
<glyph unicode="&#x102;" horiz-adv-x="1585" d="M-133 0l844 1493h440l264 -1493h-366l-43 272h-596l-148 -272h-395zM555 543h401l-90 575zM671 1864q0 21 0.5 31.5t2.5 20.5h142v-9q0 -65 43 -100t123 -35q81 0 133 35.5t80 108.5h152q-34 -143 -136.5 -220t-258.5 -77q-140 0 -210.5 62t-70.5 183z" />
<glyph unicode="&#x103;" horiz-adv-x="1382" d="M35 276q0 214 165.5 327.5t477.5 113.5h211l4 28q3 14 3.5 20t0.5 11q0 66 -62.5 99.5t-185.5 33.5q-111 0 -215 -23t-201 -69l54 273q112 28 229.5 42.5t243.5 14.5q249 0 370 -85.5t121 -260.5q0 -34 -4.5 -74.5t-13.5 -87.5l-125 -639h-358l30 166 q-88 -100 -186 -147.5t-213 -47.5q-159 0 -252.5 82.5t-93.5 222.5zM403 340q0 -61 40.5 -96t111.5 -35q110 0 184 66.5t99 187.5l8 41h-172q-134 0 -202.5 -41.5t-68.5 -122.5zM522 1529q0 21 0.5 31.5t2.5 20.5h142v-9q0 -65 43 -100t123 -35q81 0 133 35.5t80 108.5h152 q-34 -143 -136.5 -220t-258.5 -77q-140 0 -210.5 62t-70.5 183z" />
<glyph unicode="&#x104;" horiz-adv-x="1585" d="M-133 0l844 1493h440l264 -1493h-366l-43 272h-596l-148 -272h-395zM555 543h401l-90 575zM900 -266q0 65 37 128t120 138h142q-71 -74 -97 -114t-26 -68q0 -34 24.5 -53t69.5 -19q37 0 78 8t84 23l-29 -152q-57 -13 -102 -19.5t-84 -6.5q-106 0 -161.5 34.5t-55.5 100.5 z" />
<glyph unicode="&#x105;" horiz-adv-x="1382" d="M35 276q0 214 165.5 327.5t477.5 113.5h211l4 28q3 14 3.5 20t0.5 11q0 66 -62.5 99.5t-185.5 33.5q-111 0 -215 -23t-201 -69l54 273q112 28 229.5 42.5t243.5 14.5q249 0 370 -85.5t121 -260.5q0 -34 -4.5 -74.5t-13.5 -87.5l-125 -639h-358l30 166 q-88 -100 -186 -147.5t-213 -47.5q-159 0 -252.5 82.5t-93.5 222.5zM403 340q0 -61 40.5 -96t111.5 -35q110 0 184 66.5t99 187.5l8 41h-172q-134 0 -202.5 -41.5t-68.5 -122.5zM594 -266q0 65 37 128t120 138h142q-71 -74 -97 -114t-26 -68q0 -34 24.5 -53t69.5 -19 q37 0 78 8t84 23l-29 -152q-57 -13 -102 -19.5t-84 -6.5q-106 0 -161.5 34.5t-55.5 100.5z" />
<glyph unicode="&#x106;" horiz-adv-x="1503" d="M74 573q0 179 57 337.5t168 289.5q131 154 315.5 237t397.5 83q116 0 233 -27.5t238 -83.5l-62 -309q-96 73 -193 107t-208 34q-231 0 -387 -178t-156 -445q0 -172 96 -270t265 -98q101 0 214.5 36.5t254.5 114.5l-66 -331q-138 -49 -265 -74t-241 -25q-301 0 -481 165 t-180 437zM928 1635l246 264h280l-319 -264h-207z" />
<glyph unicode="&#x107;" horiz-adv-x="1214" d="M76 426q0 137 52.5 266t150.5 232q109 113 250 168t325 55q85 0 169 -15.5t167 -46.5l-57 -292q-72 48 -142 73t-137 25q-175 0 -286 -117.5t-111 -300.5q0 -117 69 -181.5t195 -64.5q84 0 165 25t154 74l-55 -293q-89 -31 -179 -46.5t-181 -15.5q-264 0 -406.5 118.5 t-142.5 336.5zM682 1262l346 376h293l-438 -376h-201z" />
<glyph unicode="&#x108;" horiz-adv-x="1503" d="M74 573q0 179 57 337.5t168 289.5q131 154 315.5 237t397.5 83q116 0 233 -27.5t238 -83.5l-62 -309q-96 73 -193 107t-208 34q-231 0 -387 -178t-156 -445q0 -172 96 -270t265 -98q101 0 214.5 36.5t254.5 114.5l-66 -331q-138 -49 -265 -74t-241 -25q-301 0 -481 165 t-180 437zM694 1635l244 264h348l152 -264h-170l-164 161l-231 -161h-179z" />
<glyph unicode="&#x109;" horiz-adv-x="1214" d="M76 426q0 137 52.5 266t150.5 232q109 113 250 168t325 55q85 0 169 -15.5t167 -46.5l-57 -292q-72 48 -142 73t-137 25q-175 0 -286 -117.5t-111 -300.5q0 -117 69 -181.5t195 -64.5q84 0 165 25t154 74l-55 -293q-89 -31 -179 -46.5t-181 -15.5q-264 0 -406.5 118.5 t-142.5 336.5zM434 1262l328 376h262l182 -376h-178l-156 225l-241 -225h-197z" />
<glyph unicode="&#x10a;" horiz-adv-x="1503" d="M74 573q0 179 57 337.5t168 289.5q131 154 315.5 237t397.5 83q116 0 233 -27.5t238 -83.5l-62 -309q-96 73 -193 107t-208 34q-231 0 -387 -178t-156 -445q0 -172 96 -270t265 -98q101 0 214.5 36.5t254.5 114.5l-66 -331q-138 -49 -265 -74t-241 -25q-301 0 -481 165 t-180 437zM942 1653l47 246h275l-47 -246h-275z" />
<glyph unicode="&#x10b;" horiz-adv-x="1214" d="M76 426q0 137 52.5 266t150.5 232q109 113 250 168t325 55q85 0 169 -15.5t167 -46.5l-57 -292q-72 48 -142 73t-137 25q-175 0 -286 -117.5t-111 -300.5q0 -117 69 -181.5t195 -64.5q84 0 165 25t154 74l-55 -293q-89 -31 -179 -46.5t-181 -15.5q-264 0 -406.5 118.5 t-142.5 336.5zM661 1263l56 292h358l-56 -292h-358z" />
<glyph unicode="&#x10c;" horiz-adv-x="1503" d="M74 573q0 179 57 337.5t168 289.5q131 154 315.5 237t397.5 83q116 0 233 -27.5t238 -83.5l-62 -309q-96 73 -193 107t-208 34q-231 0 -387 -178t-156 -445q0 -172 96 -270t265 -98q101 0 214.5 36.5t254.5 114.5l-66 -331q-138 -49 -265 -74t-241 -25q-301 0 -481 165 t-180 437zM770 1899h172l148 -162l231 162h178l-243 -264h-349z" />
<glyph unicode="&#x10d;" horiz-adv-x="1214" d="M76 426q0 137 52.5 266t150.5 232q109 113 250 168t325 55q85 0 169 -15.5t167 -46.5l-57 -292q-72 48 -142 73t-137 25q-175 0 -286 -117.5t-111 -300.5q0 -117 69 -181.5t195 -64.5q84 0 165 25t154 74l-55 -293q-89 -31 -179 -46.5t-181 -15.5q-264 0 -406.5 118.5 t-142.5 336.5zM526 1638h176l156 -227l244 227h196l-329 -376h-260z" />
<glyph unicode="&#x10e;" horiz-adv-x="1700" d="M43 0l291 1493h405q290 0 435 -34.5t241 -115.5q97 -81 146 -196.5t49 -261.5q0 -203 -83.5 -382.5t-234.5 -301.5q-132 -109 -306.5 -155t-536.5 -46h-406zM485 291h138q269 0 426 151t157 408q0 174 -102.5 263t-304.5 89h-135zM674 1899h172l148 -162l231 162h178 l-243 -264h-349z" />
<glyph unicode="&#x10f;" horiz-adv-x="1466" d="M74 418q0 129 38.5 251t110.5 222q91 126 205.5 191t245.5 65q115 0 195.5 -46.5t136.5 -144.5l116 600h361l-303 -1556h-361l33 162q-82 -98 -172 -144.5t-197 -46.5q-189 0 -299 120t-110 327zM444 440q0 -102 47.5 -155.5t137.5 -53.5q138 0 224.5 127t86.5 332 q0 93 -48.5 145t-135.5 52q-136 0 -224 -125.5t-88 -321.5zM1524 1178l123 376h293l-215 -376h-201z" />
<glyph unicode="&#x110;" horiz-adv-x="1731" d="M-4 643l51 260h205l115 590h405q290 0 435 -34.5t241 -115.5q97 -81 147 -197t50 -261q0 -201 -84.5 -381t-235.5 -303q-132 -109 -306.5 -155t-537.5 -46h-405l125 643h-205zM518 291h137q271 0 428.5 151.5t157.5 407.5q0 174 -103.5 263t-306.5 89h-135l-57 -299h246 l-51 -260h-246z" />
<glyph unicode="&#x111;" horiz-adv-x="1466" d="M74 418q0 129 38.5 251t110.5 222q91 126 205.5 191t245.5 65q115 0 195.5 -46.5t136.5 -144.5l57 295h-395l37 189h395l22 116h361l-23 -116h213l-37 -189h-213l-243 -1251h-361l33 162q-82 -98 -172 -144.5t-197 -46.5q-189 0 -299 120t-110 327zM444 440 q0 -102 47.5 -155.5t137.5 -53.5q138 0 224.5 127t86.5 332q0 93 -48.5 145t-135.5 52q-136 0 -224 -125.5t-88 -321.5z" />
<glyph unicode="&#x112;" horiz-adv-x="1399" d="M43 0l291 1493h1038l-57 -291h-653l-54 -278h615l-58 -291h-614l-66 -342h674l-55 -291h-1061zM513 1683l37 188h631l-37 -188h-631z" />
<glyph unicode="&#x113;" horiz-adv-x="1389" d="M74 434q0 128 45.5 248.5t132.5 220.5q103 120 246.5 182t318.5 62q227 0 360.5 -121t133.5 -326q0 -40 -5.5 -84.5t-17.5 -97.5l-12 -57h-838q0 -6 -1 -17.5t-1 -17.5q0 -109 65.5 -163t196.5 -54q113 0 238.5 34t263.5 101l-55 -278q-131 -48 -260.5 -71.5 t-263.5 -23.5q-262 0 -404.5 121t-142.5 342zM487 682h463q3 13 4.5 26.5t1.5 26.5q0 80 -48 127t-130 47q-105 0 -178.5 -57.5t-112.5 -169.5zM514 1375l37 188h631l-37 -188h-631z" />
<glyph unicode="&#x114;" horiz-adv-x="1399" d="M43 0l291 1493h1038l-57 -291h-653l-54 -278h615l-58 -291h-614l-66 -342h674l-55 -291h-1061zM617 1895v4h143q10 -60 50.5 -87.5t119.5 -27.5q72 0 125 30.5t76 84.5h153q-39 -129 -138 -196.5t-247 -67.5q-136 0 -209 67.5t-73 192.5z" />
<glyph unicode="&#x115;" horiz-adv-x="1389" d="M74 434q0 128 45.5 248.5t132.5 220.5q103 120 246.5 182t318.5 62q227 0 360.5 -121t133.5 -326q0 -40 -5.5 -84.5t-17.5 -97.5l-12 -57h-838q0 -6 -1 -17.5t-1 -17.5q0 -109 65.5 -163t196.5 -54q113 0 238.5 34t263.5 101l-55 -278q-131 -48 -260.5 -71.5 t-263.5 -23.5q-262 0 -404.5 121t-142.5 342zM487 682h463q3 13 4.5 26.5t1.5 26.5q0 80 -48 127t-130 47q-105 0 -178.5 -57.5t-112.5 -169.5zM567 1554q0 21 0.5 31.5t2.5 20.5h142v-9q0 -65 43 -100t123 -35q81 0 133 35.5t80 108.5h152q-34 -143 -136.5 -220t-258.5 -77 q-140 0 -210.5 62t-70.5 183z" />
<glyph unicode="&#x116;" horiz-adv-x="1399" d="M43 0l291 1493h1038l-57 -291h-653l-54 -278h615l-58 -291h-614l-66 -342h674l-55 -291h-1061zM762 1653l47 246h275l-47 -246h-275z" />
<glyph unicode="&#x117;" horiz-adv-x="1389" d="M74 434q0 128 45.5 248.5t132.5 220.5q103 120 246.5 182t318.5 62q227 0 360.5 -121t133.5 -326q0 -40 -5.5 -84.5t-17.5 -97.5l-12 -57h-838q0 -6 -1 -17.5t-1 -17.5q0 -109 65.5 -163t196.5 -54q113 0 238.5 34t263.5 101l-55 -278q-131 -48 -260.5 -71.5 t-263.5 -23.5q-262 0 -404.5 121t-142.5 342zM487 682h463q3 13 4.5 26.5t1.5 26.5q0 80 -48 127t-130 47q-105 0 -178.5 -57.5t-112.5 -169.5zM671 1263l56 292h358l-56 -292h-358z" />
<glyph unicode="&#x118;" horiz-adv-x="1399" d="M43 0l291 1493h1038l-57 -291h-653l-54 -278h615l-58 -291h-614l-66 -342h674l-55 -291h-1061zM675 -266q0 65 37 128t120 138h142q-71 -74 -97 -114t-26 -68q0 -34 24.5 -53t69.5 -19q37 0 78 8t84 23l-29 -152q-57 -13 -102 -19.5t-84 -6.5q-106 0 -161.5 34.5 t-55.5 100.5z" />
<glyph unicode="&#x119;" horiz-adv-x="1389" d="M74 434q0 128 45.5 248.5t132.5 220.5q103 120 246.5 182t318.5 62q227 0 360.5 -121t133.5 -326q0 -40 -5.5 -84.5t-17.5 -97.5l-12 -57h-838q0 -6 -1 -17.5t-1 -17.5q0 -109 65.5 -163t196.5 -54q113 0 238.5 34t263.5 101l-55 -278q-131 -48 -260.5 -71.5 t-263.5 -23.5q-262 0 -404.5 121t-142.5 342zM487 682h463q3 13 4.5 26.5t1.5 26.5q0 80 -48 127t-130 47q-105 0 -178.5 -57.5t-112.5 -169.5zM594 -266q0 65 37 128t120 138h142q-71 -74 -97 -114t-26 -68q0 -34 24.5 -53t69.5 -19q37 0 78 8t84 23l-29 -152 q-57 -13 -102 -19.5t-84 -6.5q-106 0 -161.5 34.5t-55.5 100.5z" />
<glyph unicode="&#x11a;" horiz-adv-x="1399" d="M43 0l291 1493h1038l-57 -291h-653l-54 -278h615l-58 -291h-614l-66 -342h674l-55 -291h-1061zM626 1899h172l148 -162l231 162h178l-243 -264h-349z" />
<glyph unicode="&#x11b;" horiz-adv-x="1389" d="M74 434q0 128 45.5 248.5t132.5 220.5q103 120 246.5 182t318.5 62q227 0 360.5 -121t133.5 -326q0 -40 -5.5 -84.5t-17.5 -97.5l-12 -57h-838q0 -6 -1 -17.5t-1 -17.5q0 -109 65.5 -163t196.5 -54q113 0 238.5 34t263.5 101l-55 -278q-131 -48 -260.5 -71.5 t-263.5 -23.5q-262 0 -404.5 121t-142.5 342zM487 682h463q3 13 4.5 26.5t1.5 26.5q0 80 -48 127t-130 47q-105 0 -178.5 -57.5t-112.5 -169.5zM526 1638h176l156 -227l244 227h196l-329 -376h-260z" />
<glyph unicode="&#x11c;" horiz-adv-x="1681" d="M74 573q0 181 57 339.5t170 289.5q138 160 325.5 239t428.5 79q134 0 270 -28t268 -83l-59 -309q-122 71 -238.5 106t-234.5 35q-258 0 -420 -172t-162 -442q0 -179 94.5 -278t266.5 -99q56 0 112 7.5t113 23.5l57 290h-235l49 258h598l-139 -718q-146 -71 -303 -105.5 t-336 -34.5q-318 0 -500 161.5t-182 440.5zM707 1635l244 264h348l152 -264h-170l-164 161l-231 -161h-179z" />
<glyph unicode="&#x11d;" horiz-adv-x="1466" d="M41 -377l53 279q85 -54 170 -80.5t174 -26.5q178 0 273.5 76t128.5 242l16 77q-86 -98 -175 -144t-194 -46q-190 0 -300.5 122.5t-110.5 334.5q0 113 38.5 226.5t110.5 213.5q88 121 202 184.5t245 63.5q118 0 198.5 -46t135.5 -145l30 166h361l-189 -973 q-58 -301 -248 -445t-528 -144q-104 0 -200.5 16t-190.5 49zM438 1262l328 376h262l182 -376h-178l-156 225l-241 -225h-197zM449 469q0 -102 47 -155.5t137 -53.5q131 0 219 118.5t88 295.5q0 104 -47 158.5t-137 54.5q-132 0 -219.5 -119t-87.5 -299z" />
<glyph unicode="&#x11e;" horiz-adv-x="1681" d="M74 573q0 181 57 339.5t170 289.5q138 160 325.5 239t428.5 79q134 0 270 -28t268 -83l-59 -309q-122 71 -238.5 106t-234.5 35q-258 0 -420 -172t-162 -442q0 -179 94.5 -278t266.5 -99q56 0 112 7.5t113 23.5l57 290h-235l49 258h598l-139 -718q-146 -71 -303 -105.5 t-336 -34.5q-318 0 -500 161.5t-182 440.5zM721 1895v4h143q10 -60 50.5 -87.5t119.5 -27.5q72 0 125 30.5t76 84.5h153q-39 -129 -138 -196.5t-247 -67.5q-136 0 -209 67.5t-73 192.5z" />
<glyph unicode="&#x11f;" horiz-adv-x="1466" d="M41 -377l53 279q85 -54 170 -80.5t174 -26.5q178 0 273.5 76t128.5 242l16 77q-86 -98 -175 -144t-194 -46q-190 0 -300.5 122.5t-110.5 334.5q0 113 38.5 226.5t110.5 213.5q88 121 202 184.5t245 63.5q118 0 198.5 -46t135.5 -145l30 166h361l-189 -973 q-58 -301 -248 -445t-528 -144q-104 0 -200.5 16t-190.5 49zM449 469q0 -102 47 -155.5t137 -53.5q131 0 219 118.5t88 295.5q0 104 -47 158.5t-137 54.5q-132 0 -219.5 -119t-87.5 -299zM561 1554q0 21 0.5 31.5t2.5 20.5h142v-9q0 -65 43 -100t123 -35q81 0 133 35.5 t80 108.5h152q-34 -143 -136.5 -220t-258.5 -77q-140 0 -210.5 62t-70.5 183z" />
<glyph unicode="&#x120;" horiz-adv-x="1681" d="M74 573q0 181 57 339.5t170 289.5q138 160 325.5 239t428.5 79q134 0 270 -28t268 -83l-59 -309q-122 71 -238.5 106t-234.5 35q-258 0 -420 -172t-162 -442q0 -179 94.5 -278t266.5 -99q56 0 112 7.5t113 23.5l57 290h-235l49 258h598l-139 -718q-146 -71 -303 -105.5 t-336 -34.5q-318 0 -500 161.5t-182 440.5zM942 1653l47 246h275l-47 -246h-275z" />
<glyph unicode="&#x121;" horiz-adv-x="1466" d="M41 -377l53 279q85 -54 170 -80.5t174 -26.5q178 0 273.5 76t128.5 242l16 77q-86 -98 -175 -144t-194 -46q-190 0 -300.5 122.5t-110.5 334.5q0 113 38.5 226.5t110.5 213.5q88 121 202 184.5t245 63.5q118 0 198.5 -46t135.5 -145l30 166h361l-189 -973 q-58 -301 -248 -445t-528 -144q-104 0 -200.5 16t-190.5 49zM449 469q0 -102 47 -155.5t137 -53.5q131 0 219 118.5t88 295.5q0 104 -47 158.5t-137 54.5q-132 0 -219.5 -119t-87.5 -299zM665 1263l56 292h358l-56 -292h-358z" />
<glyph unicode="&#x122;" horiz-adv-x="1681" d="M74 573q0 181 57 339.5t170 289.5q138 160 325.5 239t428.5 79q134 0 270 -28t268 -83l-59 -309q-122 71 -238.5 106t-234.5 35q-258 0 -420 -172t-162 -442q0 -179 94.5 -278t266.5 -99q56 0 112 7.5t113 23.5l57 290h-235l49 258h598l-139 -718q-146 -71 -303 -105.5 t-336 -34.5q-318 0 -500 161.5t-182 440.5zM466 -458l148 298h324l-280 -298h-192z" />
<glyph unicode="&#x123;" horiz-adv-x="1466" d="M41 -377l53 279q85 -54 170 -80.5t174 -26.5q178 0 273.5 76t128.5 242l16 77q-86 -98 -175 -144t-194 -46q-190 0 -300.5 122.5t-110.5 334.5q0 113 38.5 226.5t110.5 213.5q88 121 202 184.5t245 63.5q118 0 198.5 -46t135.5 -145l30 166h361l-189 -973 q-58 -301 -248 -445t-528 -144q-104 0 -200.5 16t-190.5 49zM449 469q0 -102 47 -155.5t137 -53.5q131 0 219 118.5t88 295.5q0 104 -47 158.5t-137 54.5q-132 0 -219.5 -119t-87.5 -299zM673 1269l280 298h192l-148 -298h-324z" />
<glyph unicode="&#x124;" horiz-adv-x="1714" d="M43 0l291 1493h385l-111 -569h568l110 569h385l-291 -1493h-385l123 633h-567l-123 -633h-385zM660 1635l244 264h348l152 -264h-170l-164 161l-231 -161h-179z" />
<glyph unicode="&#x125;" horiz-adv-x="1458" d="M63 0l302 1556h360l-117 -600q99 97 199 144t209 47q155 0 239 -81t84 -228q0 -32 -4.5 -71t-13.5 -85l-133 -682h-359l113 584q12 57 18.5 96.5t6.5 62.5q0 64 -35.5 99t-100.5 35q-111 0 -190.5 -86.5t-110.5 -239.5l-108 -551h-359zM183 1635l244 264h348l152 -264 h-170l-164 161l-231 -161h-179z" />
<glyph unicode="&#x126;" horiz-adv-x="1994" d="M183 0l216 1112h-140l38 194h140l36 187h385l-36 -187h568l36 187h385l-36 -187h140l-38 -194h-140l-216 -1112h-385l123 633h-568l-123 -633h-385zM748 924h568l36 188h-568z" />
<glyph unicode="&#x127;" horiz-adv-x="1618" d="M175 0l244 1255h-160l37 194h160l21 107h358l-21 -107h363l-37 -194h-363l-58 -299q100 98 199 144q100 47 210 47q194 0 272 -119q50 -76 50 -196q0 -68 -16 -150l-133 -682h-360l101 520q28 142 32 202q2 15 2 28q0 34 -8 53q-14 35 -46 55q-32 19 -79 19 q-112 0 -192.5 -86.5t-110.5 -239.5l-107 -551h-358z" />
<glyph unicode="&#x128;" horiz-adv-x="762" d="M43 0l291 1493h385l-291 -1493h-385zM184 1635q26 128 91.5 197t160.5 69q37 0 69.5 -12t67.5 -39l53 -41q16 -13 34 -20t34 -7q39 0 65.5 30.5t36.5 88.5h138q-26 -128 -91.5 -197t-158.5 -69q-38 0 -70 11t-70 40l-49 37q-24 19 -40.5 25.5t-34.5 6.5q-36 0 -62 -32 t-37 -88h-137z" />
<glyph unicode="&#x129;" horiz-adv-x="702" d="M63 0l218 1120h360l-219 -1120h-359zM131 1309q27 137 92.5 210.5t159.5 73.5q36 0 69.5 -13.5t70.5 -43.5l53 -43q18 -15 35 -23t32 -8q38 0 64 33.5t37 95.5h139q-26 -136 -91 -210t-159 -74q-34 0 -64 11.5t-75 45.5l-49 37q-3 2 -10 7q-38 30 -68 30q-34 0 -60 -34.5 t-36 -94.5h-140z" />
<glyph unicode="&#x12a;" horiz-adv-x="762" d="M43 0l291 1493h385l-291 -1493h-385zM185 1683l37 188h631l-37 -188h-631z" />
<glyph unicode="&#x12b;" horiz-adv-x="702" d="M63 0l218 1120h360l-219 -1120h-359zM156 1375l37 188h631l-37 -188h-631z" />
<glyph unicode="&#x12c;" horiz-adv-x="762" d="M43 0l291 1493h385l-291 -1493h-385zM260 1895v4h143q10 -60 50.5 -87.5t119.5 -27.5q72 0 125 30.5t76 84.5h153q-39 -129 -138 -196.5t-247 -67.5q-136 0 -209 67.5t-73 192.5z" />
<glyph unicode="&#x12d;" horiz-adv-x="702" d="M63 0l218 1120h360l-219 -1120h-359zM199 1554q0 21 0.5 31.5t2.5 20.5h142v-9q0 -65 43 -100t123 -35q81 0 133 35.5t80 108.5h152q-34 -143 -136.5 -220t-258.5 -77q-140 0 -210.5 62t-70.5 183z" />
<glyph unicode="&#x12e;" horiz-adv-x="762" d="M43 0l291 1493h385l-291 -1493h-385zM129 -266q0 65 37 128t120 138h142q-71 -74 -97 -114t-26 -68q0 -34 24.5 -53t69.5 -19q37 0 78 8t84 23l-29 -152q-57 -13 -102 -19.5t-84 -6.5q-106 0 -161.5 34.5t-55.5 100.5z" />
<glyph unicode="&#x12f;" horiz-adv-x="702" d="M63 0l218 1120h360l-219 -1120h-359zM123 -266q0 65 37 128t120 138h142q-71 -74 -97 -114t-26 -68q0 -34 24.5 -53t69.5 -19q37 0 78 8t84 23l-29 -152q-57 -13 -102 -19.5t-84 -6.5q-106 0 -161.5 34.5t-55.5 100.5zM307 1264l58 292h360l-57 -292h-361z" />
<glyph unicode="&#x130;" horiz-adv-x="762" d="M43 0l291 1493h385l-291 -1493h-385zM405 1653l47 246h275l-47 -246h-275z" />
<glyph unicode="&#x131;" horiz-adv-x="702" d="M63 0l218 1120h360l-219 -1120h-359z" />
<glyph unicode="&#x132;" horiz-adv-x="1524" d="M43 0l291 1493h385l-291 -1493h-385zM421 -410l57 291h60q119 0 194.5 67.5t100.5 196.5l262 1348h385l-262 -1348q-58 -292 -227.5 -423.5t-491.5 -131.5h-78z" />
<glyph unicode="&#x133;" horiz-adv-x="1404" d="M63 0l218 1120h360l-219 -1120h-359zM307 1264l58 292h360l-57 -292h-361zM440 -442l45 235h63q101 0 147.5 45.5t72.5 181.5l215 1100h360l-215 -1100q-46 -235 -171.5 -348.5t-338.5 -113.5h-178zM1009 1264l58 292h360l-57 -292h-361z" />
<glyph unicode="&#x134;" horiz-adv-x="762" d="M-340 -410l57 291h60q119 0 194.5 67.5t100.5 196.5l262 1348h385l-262 -1348q-58 -292 -227.5 -423.5t-491.5 -131.5h-78zM184 1635l244 264h348l152 -264h-170l-164 161l-231 -161h-179z" />
<glyph unicode="&#x135;" horiz-adv-x="702" d="M-262 -442l45 235h63q101 0 147.5 45.5t72.5 181.5l215 1100h360l-215 -1100q-46 -235 -171.5 -348.5t-338.5 -113.5h-178zM104 1262l328 376h262l182 -376h-178l-156 225l-241 -225h-197z" />
<glyph unicode="&#x136;" horiz-adv-x="1587" d="M43 0l291 1493h385l-105 -537l635 537h465l-856 -725l645 -768h-452l-502 623l-121 -623h-385zM483 -429l148 298h324l-280 -298h-192z" />
<glyph unicode="&#x137;" horiz-adv-x="1362" d="M63 0l302 1556h360l-164 -843l483 407h422l-651 -518l473 -602h-409l-363 483l-94 -483h-359zM385 -429l148 298h324l-280 -298h-192z" />
<glyph unicode="&#x138;" horiz-adv-x="1362" d="M63 0l218 1120h358l-80 -411l492 411h416l-647 -514l472 -606h-434l-346 467l-91 -467h-358z" />
<glyph unicode="&#x139;" horiz-adv-x="1305" d="M43 0l291 1493h385l-234 -1202h674l-55 -291h-1061zM478 1636l246 264h280l-319 -264h-207z" />
<glyph unicode="&#x13a;" horiz-adv-x="702" d="M63 0l302 1556h360l-303 -1556h-359zM453 1636l246 264h280l-319 -264h-207z" />
<glyph unicode="&#x13b;" horiz-adv-x="1305" d="M43 0l291 1493h385l-234 -1202h674l-55 -291h-1061zM283 -429l148 298h324l-280 -298h-192z" />
<glyph unicode="&#x13c;" horiz-adv-x="702" d="M-48 -429l148 298h324l-280 -298h-192zM63 0l302 1556h360l-303 -1556h-359z" />
<glyph unicode="&#x13d;" horiz-adv-x="1305" d="M43 0l291 1493h385l-234 -1202h674l-55 -291h-1061zM860 1116l123 376h293l-215 -376h-201z" />
<glyph unicode="&#x13e;" horiz-adv-x="702" d="M63 0l302 1556h360l-303 -1556h-359zM775 1180l123 376h293l-215 -376h-201z" />
<glyph unicode="&#x13f;" horiz-adv-x="1305" d="M43 0l291 1493h385l-234 -1202h674l-55 -291h-1061zM842 704l76 387h360l-76 -387h-360z" />
<glyph unicode="&#x140;" horiz-adv-x="702" d="M63 0l302 1556h360l-303 -1556h-359zM700 710l76 387h360l-76 -387h-360z" />
<glyph unicode="&#x141;" horiz-adv-x="1352" d="M-47 643l317 135l140 715h385l-101 -516l340 151l105 -210l-500 -220l-78 -407h674l-55 -291h-1061l98 502l-160 -74z" />
<glyph unicode="&#x142;" horiz-adv-x="768" d="M-14 733l288 135l134 688h360l-102 -516l168 78l100 -203l-320 -145l-149 -770h-361l117 598l-139 -68z" />
<glyph unicode="&#x143;" horiz-adv-x="1714" d="M43 0l291 1493h430l342 -1034l201 1034h364l-291 -1493h-430l-342 1034l-200 -1034h-365zM816 1636l246 264h280l-319 -264h-207z" />
<glyph unicode="&#x144;" horiz-adv-x="1458" d="M63 0l218 1120h360l-33 -164q99 97 199 144t209 47q155 0 239 -81t84 -228q0 -32 -4.5 -71t-13.5 -85l-133 -682h-359l113 584q12 57 18.5 96.5t6.5 62.5q0 64 -35.5 99t-100.5 35q-111 0 -190.5 -86.5t-110.5 -239.5l-108 -551h-359zM625 1269l346 376h293l-438 -376 h-201z" />
<glyph unicode="&#x145;" horiz-adv-x="1714" d="M43 0l291 1493h430l342 -1034l201 1034h364l-291 -1493h-430l-342 1034l-200 -1034h-365zM421 -429l148 298h324l-280 -298h-192z" />
<glyph unicode="&#x146;" horiz-adv-x="1458" d="M63 0l218 1120h360l-33 -164q99 97 199 144t209 47q155 0 239 -81t84 -228q0 -32 -4.5 -71t-13.5 -85l-133 -682h-359l113 584q12 57 18.5 96.5t6.5 62.5q0 64 -35.5 99t-100.5 35q-111 0 -190.5 -86.5t-110.5 -239.5l-108 -551h-359zM335 -429l148 298h324l-280 -298 h-192z" />
<glyph unicode="&#x147;" horiz-adv-x="1714" d="M43 0l291 1493h430l342 -1034l201 1034h364l-291 -1493h-430l-342 1034l-200 -1034h-365zM770 1899h172l148 -162l231 162h178l-243 -264h-349z" />
<glyph unicode="&#x148;" horiz-adv-x="1458" d="M63 0l218 1120h360l-33 -164q99 97 199 144t209 47q155 0 239 -81t84 -228q0 -32 -4.5 -71t-13.5 -85l-133 -682h-359l113 584q12 57 18.5 96.5t6.5 62.5q0 64 -35.5 99t-100.5 35q-111 0 -190.5 -86.5t-110.5 -239.5l-108 -551h-359zM526 1638h176l156 -227l244 227h196 l-329 -376h-260z" />
<glyph unicode="&#x149;" horiz-adv-x="2013" d="M125 856l169 352l55 285h340l-55 -285l-296 -352h-213zM590 0l218 1120h360l-33 -164q99 97 199 144t209 47q155 0 239 -81t84 -228q0 -32 -4.5 -71t-13.5 -85l-133 -682h-359l113 584q12 57 18.5 96.5t6.5 62.5q0 64 -35.5 99t-100.5 35q-111 0 -190.5 -86.5 t-110.5 -239.5l-108 -551h-359z" />
<glyph unicode="&#x14a;" horiz-adv-x="1714" d="M64 0l290 1493h372l-44 -227q137 135 265 194.5t273 59.5q227 0 315 -158q52 -95 52 -216.5t-23 -242.5l-148 -758q-57 -297 -212 -417q-179 -138 -486 -138h-78l57 291h60q120 0 197 69t101 195l106 546q42 217 42 281.5t-19 101t-69.5 62.5t-121.5 26 q-157 0 -268.5 -115t-150.5 -317l-142 -730h-368z" />
<glyph unicode="&#x14b;" horiz-adv-x="1458" d="M103 0l218 1120h358l-32 -164q100 98 200 144q100 47 210 47q194 0 272 -119q49 -76 49 -195q0 -68 -16 -151l-129 -662q-43 -223 -176 -344q-131 -118 -336 -118h-281l45 235h166q102 0 149 46t73 181l98 502q28 145 33 200q1 14 1 26q0 36 -8 55q-15 35 -47 55 q-32 19 -78 19q-112 0 -193 -87q-81 -86 -110 -239l-108 -551h-358z" />
<glyph unicode="&#x14c;" horiz-adv-x="1741" d="M74 569q0 183 55 345t162 292q128 158 305.5 236t409.5 78q298 0 479.5 -165.5t181.5 -432.5q0 -182 -55.5 -344t-161.5 -291q-130 -159 -307.5 -237.5t-409.5 -78.5q-297 0 -478 165t-181 433zM479 612q0 -172 79 -267t220 -95q115 0 204.5 48.5t152.5 143.5 q60 91 92.5 205t32.5 234q0 176 -79.5 268t-230.5 92q-200 0 -335.5 -179.5t-135.5 -449.5zM675 1683l37 188h631l-37 -188h-631z" />
<glyph unicode="&#x14d;" horiz-adv-x="1407" d="M74 444q0 126 46 246.5t132 220.5q100 116 238.5 176t306.5 60q250 0 393 -127t143 -346q0 -127 -45 -246.5t-131 -218.5q-102 -118 -241 -178t-310 -60q-247 0 -389.5 127t-142.5 346zM449 444q0 -106 48.5 -161.5t141.5 -55.5q139 0 229 126.5t90 322.5 q0 105 -48.5 160t-141.5 55q-139 0 -229 -126t-90 -321zM510 1375l37 188h631l-37 -188h-631z" />
<glyph unicode="&#x14e;" horiz-adv-x="1741" d="M74 569q0 183 55 345t162 292q128 158 305.5 236t409.5 78q298 0 479.5 -165.5t181.5 -432.5q0 -182 -55.5 -344t-161.5 -291q-130 -159 -307.5 -237.5t-409.5 -78.5q-297 0 -478 165t-181 433zM479 612q0 -172 79 -267t220 -95q115 0 204.5 48.5t152.5 143.5 q60 91 92.5 205t32.5 234q0 176 -79.5 268t-230.5 92q-200 0 -335.5 -179.5t-135.5 -449.5zM778 1895v4h143q10 -60 50.5 -87.5t119.5 -27.5q72 0 125 30.5t76 84.5h153q-39 -129 -138 -196.5t-247 -67.5q-136 0 -209 67.5t-73 192.5z" />
<glyph unicode="&#x14f;" horiz-adv-x="1407" d="M74 444q0 126 46 246.5t132 220.5q100 116 238.5 176t306.5 60q250 0 393 -127t143 -346q0 -127 -45 -246.5t-131 -218.5q-102 -118 -241 -178t-310 -60q-247 0 -389.5 127t-142.5 346zM449 444q0 -106 48.5 -161.5t141.5 -55.5q139 0 229 126.5t90 322.5 q0 105 -48.5 160t-141.5 55q-139 0 -229 -126t-90 -321zM533 1554q0 21 0.5 31.5t2.5 20.5h142v-9q0 -65 43 -100t123 -35q81 0 133 35.5t80 108.5h152q-34 -143 -136.5 -220t-258.5 -77q-140 0 -210.5 62t-70.5 183z" />
<glyph unicode="&#x150;" horiz-adv-x="1741" d="M74 569q0 183 55 345t162 292q128 158 305.5 236t409.5 78q298 0 479.5 -165.5t181.5 -432.5q0 -182 -55.5 -344t-161.5 -291q-130 -159 -307.5 -237.5t-409.5 -78.5q-297 0 -478 165t-181 433zM479 612q0 -172 79 -267t220 -95q115 0 204.5 48.5t152.5 143.5 q60 91 92.5 205t32.5 234q0 176 -79.5 268t-230.5 92q-200 0 -335.5 -179.5t-135.5 -449.5zM676 1635l246 264h280l-319 -264h-207zM1141 1635l246 264h280l-319 -264h-207z" />
<glyph unicode="&#x151;" horiz-adv-x="1407" d="M74 444q0 126 46 246.5t132 220.5q100 116 238.5 176t306.5 60q250 0 393 -127t143 -346q0 -127 -45 -246.5t-131 -218.5q-102 -118 -241 -178t-310 -60q-247 0 -389.5 127t-142.5 346zM449 444q0 -106 48.5 -161.5t141.5 -55.5q139 0 229 126.5t90 322.5 q0 105 -48.5 160t-141.5 55q-139 0 -229 -126t-90 -321zM486 1262l235 376h250l-311 -376h-174zM828 1262l268 376h250l-344 -376h-174z" />
<glyph unicode="&#x152;" horiz-adv-x="2390" d="M86 575q0 242 118 447.5t326 327.5q128 73 285.5 108t362.5 35h57h1128l-57 -291h-651l-56 -278h615l-57 -291h-615l-65 -342h675l-57 -291h-1159h-55q-379 0 -587 151t-208 424zM489 647q0 -183 120.5 -269.5t375.5 -86.5h107l176 911h-105q-140 0 -244 -23.5 t-180 -72.5q-113 -74 -181.5 -199t-68.5 -260z" />
<glyph unicode="&#x153;" horiz-adv-x="2241" d="M74 444q0 127 45.5 247.5t130.5 219.5q101 117 241 176.5t312 59.5q140 0 241.5 -40.5t165.5 -121.5q94 81 208 121.5t251 40.5q223 0 356.5 -122t133.5 -323q0 -40 -6 -86.5t-17 -97.5l-12 -57h-838q0 -6 -1 -17.5t-1 -17.5q0 -109 65.5 -163t196.5 -54q112 0 238 34 t264 101l-55 -278q-131 -48 -261 -71.5t-266 -23.5q-155 0 -255 39t-158 121q-90 -82 -197 -121t-244 -39q-251 0 -394.5 126.5t-143.5 346.5zM449 444q0 -106 48.5 -161.5t141.5 -55.5q139 0 229 126.5t90 322.5q0 105 -48.5 160t-141.5 55q-139 0 -229 -126t-90 -321z M1333 682h465q3 13 4.5 26.5t1.5 26.5q0 80 -48 127t-130 47q-105 0 -180.5 -58.5t-112.5 -168.5z" />
<glyph unicode="&#x154;" horiz-adv-x="1577" d="M43 0l291 1493h569q246 0 373 -92t127 -271q0 -181 -100 -298t-271 -134q78 -16 130 -79.5t91 -194.5l127 -424h-383l-112 371q-34 111 -82.5 152.5t-140.5 41.5h-123l-111 -565h-385zM590 831h162q131 0 198.5 61t67.5 179q0 74 -46.5 108.5t-146.5 34.5h-159zM780 1636 l246 264h280l-319 -264h-207z" />
<glyph unicode="&#x155;" horiz-adv-x="1010" d="M63 0l218 1120h360l-39 -192q71 106 177.5 162.5t236.5 56.5q19 0 43 -2t57 -6l-63 -324q-37 21 -82 32t-97 11q-137 0 -227.5 -88t-122.5 -254l-102 -516h-359zM625 1269l346 376h293l-438 -376h-201z" />
<glyph unicode="&#x156;" horiz-adv-x="1577" d="M43 0l291 1493h569q246 0 373 -92t127 -271q0 -181 -100 -298t-271 -134q78 -16 130 -79.5t91 -194.5l127 -424h-383l-112 371q-34 111 -82.5 152.5t-140.5 41.5h-123l-111 -565h-385zM421 -429l148 298h324l-280 -298h-192zM590 831h162q131 0 198.5 61t67.5 179 q0 74 -46.5 108.5t-146.5 34.5h-159z" />
<glyph unicode="&#x157;" horiz-adv-x="1010" d="M-48 -429l148 298h324l-280 -298h-192zM63 0l218 1120h360l-39 -192q71 106 177.5 162.5t236.5 56.5q19 0 43 -2t57 -6l-63 -324q-37 21 -82 32t-97 11q-137 0 -227.5 -88t-122.5 -254l-102 -516h-359z" />
<glyph unicode="&#x158;" horiz-adv-x="1577" d="M43 0l291 1493h569q246 0 373 -92t127 -271q0 -181 -100 -298t-271 -134q78 -16 130 -79.5t91 -194.5l127 -424h-383l-112 371q-34 111 -82.5 152.5t-140.5 41.5h-123l-111 -565h-385zM584 1899h172l148 -162l231 162h178l-243 -264h-349zM590 831h162q131 0 198.5 61 t67.5 179q0 74 -46.5 108.5t-146.5 34.5h-159z" />
<glyph unicode="&#x159;" horiz-adv-x="1010" d="M63 0l218 1120h360l-39 -192q71 106 177.5 162.5t236.5 56.5q19 0 43 -2t57 -6l-63 -324q-37 21 -82 32t-97 11q-137 0 -227.5 -88t-122.5 -254l-102 -516h-359zM460 1638h176l156 -227l244 227h196l-329 -376h-260z" />
<glyph unicode="&#x15a;" horiz-adv-x="1475" d="M31 78l61 325q133 -77 258.5 -115t247.5 -38q132 0 214.5 54t82.5 138q0 55 -37 85.5t-162 62.5l-157 39q-174 43 -259 136t-85 241q0 233 178.5 373.5t480.5 140.5q121 0 248.5 -18.5t259.5 -55.5l-62 -316q-113 56 -223 83.5t-215 27.5q-144 0 -224.5 -45t-80.5 -125 q0 -51 35.5 -79.5t146.5 -55.5l158 -39q198 -50 290.5 -144.5t92.5 -244.5q0 -243 -184.5 -390t-495.5 -147q-145 0 -288.5 27t-280.5 80zM780 1636l246 264h280l-319 -264h-207z" />
<glyph unicode="&#x15b;" horiz-adv-x="1219" d="M20 43l54 281q97 -57 207.5 -86t226.5 -29q113 0 170 27t57 79q0 36 -32 56t-132 41l-65 12q-192 40 -274 118t-82 216q0 187 141.5 288t404.5 101q115 0 226.5 -15.5t224.5 -46.5l-53 -278q-105 50 -209 76t-197 26q-106 0 -163.5 -27.5t-57.5 -78.5q0 -30 32 -48 t126 -38l65 -12q217 -46 304 -118.5t87 -201.5q0 -195 -153 -304.5t-428 -109.5q-115 0 -235 18t-245 54zM625 1269l346 376h293l-438 -376h-201z" />
<glyph unicode="&#x15c;" horiz-adv-x="1475" d="M31 78l61 325q133 -77 258.5 -115t247.5 -38q132 0 214.5 54t82.5 138q0 55 -37 85.5t-162 62.5l-157 39q-174 43 -259 136t-85 241q0 233 178.5 373.5t480.5 140.5q121 0 248.5 -18.5t259.5 -55.5l-62 -316q-113 56 -223 83.5t-215 27.5q-144 0 -224.5 -45t-80.5 -125 q0 -51 35.5 -79.5t146.5 -55.5l158 -39q198 -50 290.5 -144.5t92.5 -244.5q0 -243 -184.5 -390t-495.5 -147q-145 0 -288.5 27t-280.5 80zM506 1635l244 264h348l152 -264h-170l-164 161l-231 -161h-179z" />
<glyph unicode="&#x15d;" horiz-adv-x="1219" d="M20 43l54 281q97 -57 207.5 -86t226.5 -29q113 0 170 27t57 79q0 36 -32 56t-132 41l-65 12q-192 40 -274 118t-82 216q0 187 141.5 288t404.5 101q115 0 226.5 -15.5t224.5 -46.5l-53 -278q-105 50 -209 76t-197 26q-106 0 -163.5 -27.5t-57.5 -78.5q0 -30 32 -48 t126 -38l65 -12q217 -46 304 -118.5t87 -201.5q0 -195 -153 -304.5t-428 -109.5q-115 0 -235 18t-245 54zM334 1262l328 376h262l182 -376h-178l-156 225l-241 -225h-197z" />
<glyph unicode="&#x15e;" horiz-adv-x="1475" d="M31 78l61 325q133 -77 258.5 -115t247.5 -38q132 0 214.5 54t82.5 138q0 55 -37 85.5t-162 62.5l-157 39q-174 43 -259 136t-85 241q0 233 178.5 373.5t480.5 140.5q121 0 248.5 -18.5t259.5 -55.5l-62 -316q-113 56 -223 83.5t-215 27.5q-144 0 -224.5 -45t-80.5 -125 q0 -51 35.5 -79.5t146.5 -55.5l158 -39q198 -50 290.5 -144.5t92.5 -244.5q0 -243 -184.5 -390t-495.5 -147q-145 0 -288.5 27t-280.5 80zM270 -375l29 156q40 -17 80.5 -26t78.5 -9q66 0 104 28.5t38 75.5q0 26 -13.5 60.5t-44.5 89.5h142q37 -52 54 -96t17 -86 q0 -104 -75.5 -161.5t-212.5 -57.5q-49 0 -97.5 6.5t-99.5 19.5z" />
<glyph unicode="&#x15f;" horiz-adv-x="1219" d="M20 43l54 281q97 -57 207.5 -86t226.5 -29q113 0 170 27t57 79q0 36 -32 56t-132 41l-65 12q-192 40 -274 118t-82 216q0 187 141.5 288t404.5 101q115 0 226.5 -15.5t224.5 -46.5l-53 -278q-105 50 -209 76t-197 26q-106 0 -163.5 -27.5t-57.5 -78.5q0 -30 32 -48 t126 -38l65 -12q217 -46 304 -118.5t87 -201.5q0 -195 -153 -304.5t-428 -109.5q-115 0 -235 18t-245 54zM143 -375l29 156q40 -17 80.5 -26t78.5 -9q66 0 104 28.5t38 75.5q0 26 -13.5 60.5t-44.5 89.5h142q37 -52 54 -96t17 -86q0 -104 -75.5 -161.5t-212.5 -57.5 q-49 0 -97.5 6.5t-99.5 19.5z" />
<glyph unicode="&#x160;" horiz-adv-x="1475" d="M31 78l61 325q133 -77 258.5 -115t247.5 -38q132 0 214.5 54t82.5 138q0 55 -37 85.5t-162 62.5l-157 39q-174 43 -259 136t-85 241q0 233 178.5 373.5t480.5 140.5q121 0 248.5 -18.5t259.5 -55.5l-62 -316q-113 56 -223 83.5t-215 27.5q-144 0 -224.5 -45t-80.5 -125 q0 -51 35.5 -79.5t146.5 -55.5l158 -39q198 -50 290.5 -144.5t92.5 -244.5q0 -243 -184.5 -390t-495.5 -147q-145 0 -288.5 27t-280.5 80zM590 1899h172l148 -162l231 162h178l-243 -264h-349z" />
<glyph unicode="&#x161;" horiz-adv-x="1219" d="M20 43l54 281q97 -57 207.5 -86t226.5 -29q113 0 170 27t57 79q0 36 -32 56t-132 41l-65 12q-192 40 -274 118t-82 216q0 187 141.5 288t404.5 101q115 0 226.5 -15.5t224.5 -46.5l-53 -278q-105 50 -209 76t-197 26q-106 0 -163.5 -27.5t-57.5 -78.5q0 -30 32 -48 t126 -38l65 -12q217 -46 304 -118.5t87 -201.5q0 -195 -153 -304.5t-428 -109.5q-115 0 -235 18t-245 54zM407 1638h176l156 -227l244 227h196l-329 -376h-260z" />
<glyph unicode="&#x162;" horiz-adv-x="1397" d="M98 1202l58 291h1376l-57 -291h-496l-234 -1202h-385l234 1202h-496zM216 -375l29 156q40 -17 80.5 -26t78.5 -9q66 0 104 28.5t38 75.5q0 26 -13.5 60.5t-44.5 89.5h142q37 -52 54 -96t17 -86q0 -104 -75.5 -161.5t-212.5 -57.5q-49 0 -97.5 6.5t-99.5 19.5z" />
<glyph unicode="&#x163;" horiz-adv-x="979" d="M88 864l49 256h178l62 318h360l-61 -318h366l-51 -256h-366l-92 -474q-4 -16 -5.5 -27t-1.5 -21q0 -46 30.5 -66t102.5 -20h185l-51 -256h-301q-162 0 -247 68t-85 196q0 28 3 60t9 65l92 475h-176zM127 -375l29 156q40 -17 80.5 -26t78.5 -9q66 0 104 28.5t38 75.5 q0 26 -13.5 60.5t-44.5 89.5h142q37 -52 54 -96t17 -86q0 -104 -75.5 -161.5t-212.5 -57.5q-49 0 -97.5 6.5t-99.5 19.5z" />
<glyph unicode="&#x164;" horiz-adv-x="1397" d="M98 1202l58 291h1376l-57 -291h-496l-234 -1202h-385l234 1202h-496zM566 1899h172l148 -162l231 162h178l-243 -264h-349z" />
<glyph unicode="&#x165;" horiz-adv-x="979" d="M88 864l49 256h178l62 318h360l-61 -318h366l-51 -256h-366l-92 -474q-4 -16 -5.5 -27t-1.5 -21q0 -46 30.5 -66t102.5 -20h185l-51 -256h-301q-162 0 -247 68t-85 196q0 28 3 60t9 65l92 475h-176zM843 1262l123 376h293l-215 -376h-201z" />
<glyph unicode="&#x166;" horiz-adv-x="1397" d="M99 1202l56 291h1376l-56 -291h-495l-85 -437h247l-51 -260h-247l-98 -505h-385l98 505h-247l51 260h247l85 437h-496z" />
<glyph unicode="&#x167;" horiz-adv-x="979" d="M-22 466l50 256h178l27 142h-178l50 256h178l62 318h358l-62 -318h369l-50 -256h-369l-27 -142h369l-50 -256h-369l-15 -77q-15 -78 10 -105q26 -28 118 -28h184l-50 -256h-307q-212 0 -283 88q-72 89 -30 301l15 77h-178z" />
<glyph unicode="&#x168;" horiz-adv-x="1663" d="M139 414q0 36 5 80.5t16 103.5l174 895h385l-174 -894q-10 -48 -14.5 -85t-4.5 -65q0 -98 52.5 -146.5t156.5 -48.5q140 0 215 78.5t111 265.5l174 895h385l-174 -895q-65 -330 -246.5 -478.5t-519.5 -148.5q-265 0 -403 113.5t-138 329.5zM623 1635q26 128 91.5 197 t160.5 69q37 0 69.5 -12t67.5 -39l53 -41q16 -13 34 -20t34 -7q39 0 65.5 30.5t36.5 88.5h138q-26 -128 -91.5 -197t-158.5 -69q-38 0 -70 11t-70 40l-49 37q-24 19 -40.5 25.5t-34.5 6.5q-36 0 -62 -32t-37 -88h-137z" />
<glyph unicode="&#x169;" horiz-adv-x="1458" d="M123 281q0 35 4 74t12 81l131 684h359l-113 -583q-12 -57 -18 -97t-6 -63q0 -63 35 -98t100 -35q111 0 191 86t110 239l108 551h359l-217 -1120h-361l33 164q-92 -97 -193 -145t-213 -48q-153 0 -237 81t-84 229zM489 1309q27 137 92.5 210.5t159.5 73.5q36 0 69.5 -13.5 t70.5 -43.5l53 -43q18 -15 35 -23t32 -8q38 0 64 33.5t37 95.5h139q-26 -136 -91 -210t-159 -74q-34 0 -64 11.5t-75 45.5l-49 37q-3 2 -10 7q-38 30 -68 30q-34 0 -60 -34.5t-36 -94.5h-140z" />
<glyph unicode="&#x16a;" horiz-adv-x="1663" d="M139 414q0 36 5 80.5t16 103.5l174 895h385l-174 -894q-10 -48 -14.5 -85t-4.5 -65q0 -98 52.5 -146.5t156.5 -48.5q140 0 215 78.5t111 265.5l174 895h385l-174 -895q-65 -330 -246.5 -478.5t-519.5 -148.5q-265 0 -403 113.5t-138 329.5zM637 1683l37 188h631l-37 -188 h-631z" />
<glyph unicode="&#x16b;" horiz-adv-x="1458" d="M123 281q0 35 4 74t12 81l131 684h359l-113 -583q-12 -57 -18 -97t-6 -63q0 -63 35 -98t100 -35q111 0 191 86t110 239l108 551h359l-217 -1120h-361l33 164q-92 -97 -193 -145t-213 -48q-153 0 -237 81t-84 229zM528 1374l37 188h631l-37 -188h-631z" />
<glyph unicode="&#x16c;" horiz-adv-x="1663" d="M139 414q0 36 5 80.5t16 103.5l174 895h385l-174 -894q-10 -48 -14.5 -85t-4.5 -65q0 -98 52.5 -146.5t156.5 -48.5q140 0 215 78.5t111 265.5l174 895h385l-174 -895q-65 -330 -246.5 -478.5t-519.5 -148.5q-265 0 -403 113.5t-138 329.5zM699 1895v4h143 q10 -60 50.5 -87.5t119.5 -27.5q72 0 125 30.5t76 84.5h153q-39 -129 -138 -196.5t-247 -67.5q-136 0 -209 67.5t-73 192.5z" />
<glyph unicode="&#x16d;" horiz-adv-x="1458" d="M123 281q0 35 4 74t12 81l131 684h359l-113 -583q-12 -57 -18 -97t-6 -63q0 -63 35 -98t100 -35q111 0 191 86t110 239l108 551h359l-217 -1120h-361l33 164q-92 -97 -193 -145t-213 -48q-153 0 -237 81t-84 229zM557 1554q0 21 0.5 31.5t2.5 20.5h142v-9q0 -65 43 -100 t123 -35q81 0 133 35.5t80 108.5h152q-34 -143 -136.5 -220t-258.5 -77q-140 0 -210.5 62t-70.5 183z" />
<glyph unicode="&#x16e;" horiz-adv-x="1663" d="M139 414q0 36 5 80.5t16 103.5l174 895h385l-174 -894q-10 -48 -14.5 -85t-4.5 -65q0 -98 52.5 -146.5t156.5 -48.5q140 0 215 78.5t111 265.5l174 895h385l-174 -895q-65 -330 -246.5 -478.5t-519.5 -148.5q-265 0 -403 113.5t-138 329.5zM701 1607q0 120 82.5 202 t202.5 82q119 0 201.5 -82t82.5 -202t-82.5 -202.5t-201.5 -82.5q-120 0 -202.5 82.5t-82.5 202.5zM836 1607q0 -65 42.5 -107.5t107.5 -42.5t107 42t42 108q0 65 -42 107t-107 42q-66 0 -108 -42t-42 -107z" />
<glyph unicode="&#x16f;" horiz-adv-x="1458" d="M123 281q0 35 4 74t12 81l131 684h359l-113 -583q-12 -57 -18 -97t-6 -63q0 -63 35 -98t100 -35q111 0 191 86t110 239l108 551h359l-217 -1120h-361l33 164q-92 -97 -193 -145t-213 -48q-153 0 -237 81t-84 229zM582 1504q0 120 82.5 202t202.5 82q119 0 201.5 -82 t82.5 -202t-82.5 -202.5t-201.5 -82.5q-120 0 -202.5 82.5t-82.5 202.5zM717 1504q0 -65 42.5 -107.5t107.5 -42.5t107 42t42 108q0 65 -42 107t-107 42q-66 0 -108 -42t-42 -107z" />
<glyph unicode="&#x170;" horiz-adv-x="1663" d="M139 414q0 36 5 80.5t16 103.5l174 895h385l-174 -894q-10 -48 -14.5 -85t-4.5 -65q0 -98 52.5 -146.5t156.5 -48.5q140 0 215 78.5t111 265.5l174 895h385l-174 -895q-65 -330 -246.5 -478.5t-519.5 -148.5q-265 0 -403 113.5t-138 329.5zM597 1635l246 264h280 l-319 -264h-207zM1062 1635l246 264h280l-319 -264h-207z" />
<glyph unicode="&#x171;" horiz-adv-x="1458" d="M123 281q0 35 4 74t12 81l131 684h359l-113 -583q-12 -57 -18 -97t-6 -63q0 -63 35 -98t100 -35q111 0 191 86t110 239l108 551h359l-217 -1120h-361l33 164q-92 -97 -193 -145t-213 -48q-153 0 -237 81t-84 229zM510 1262l235 376h250l-311 -376h-174zM852 1262l268 376 h250l-344 -376h-174z" />
<glyph unicode="&#x172;" horiz-adv-x="1663" d="M139 414q0 36 5 80.5t16 103.5l174 895h385l-174 -894q-10 -48 -14.5 -85t-4.5 -65q0 -98 52.5 -146.5t156.5 -48.5q140 0 215 78.5t111 265.5l174 895h385l-174 -895q-65 -330 -246.5 -478.5t-519.5 -148.5q-265 0 -403 113.5t-138 329.5zM460 -266q0 65 37 128t120 138 h142q-71 -74 -97 -114t-26 -68q0 -34 24.5 -53t69.5 -19q37 0 78 8t84 23l-29 -152q-57 -13 -102 -19.5t-84 -6.5q-106 0 -161.5 34.5t-55.5 100.5z" />
<glyph unicode="&#x173;" horiz-adv-x="1458" d="M123 281q0 35 4 74t12 81l131 684h359l-113 -583q-12 -57 -18 -97t-6 -63q0 -63 35 -98t100 -35q111 0 191 86t110 239l108 551h359l-217 -1120h-361l33 164q-92 -97 -193 -145t-213 -48q-153 0 -237 81t-84 229zM875 -266q0 65 37 128t120 138h142q-71 -74 -97 -114 t-26 -68q0 -34 24.5 -53t69.5 -19q37 0 78 8t84 23l-29 -152q-57 -13 -102 -19.5t-84 -6.5q-106 0 -161.5 34.5t-55.5 100.5z" />
<glyph unicode="&#x174;" horiz-adv-x="2259" d="M219 1493h356l46 -1085l469 1085h366l49 -1085l453 1085h383l-643 -1493h-436l-50 1135l-483 -1135h-446zM937 1642l244 264h348l152 -264h-170l-164 161l-231 -161h-179z" />
<glyph unicode="&#x175;" horiz-adv-x="1892" d="M178 1120h330l39 -770l338 770h284l41 -768l336 768h352l-512 -1120h-380l-37 770l-342 -770h-371zM681 1262l328 376h262l182 -376h-178l-156 225l-241 -225h-197z" />
<glyph unicode="&#x176;" horiz-adv-x="1483" d="M129 1493h385l254 -553l444 553h445l-737 -870l-121 -623h-385l121 623zM547 1642l244 264h348l152 -264h-170l-164 161l-231 -161h-179z" />
<glyph unicode="&#x177;" horiz-adv-x="1335" d="M0 -442l37 235h113q88 0 136.5 29.5t86.5 103.5l33 60l-271 1134h338l154 -776l397 776h383l-709 -1226q-119 -207 -220 -271.5t-261 -64.5h-217zM414 1262l328 376h262l182 -376h-178l-156 225l-241 -225h-197z" />
<glyph unicode="&#x178;" horiz-adv-x="1483" d="M129 1493h385l254 -553l444 553h445l-737 -870l-121 -623h-385l121 623zM586 1653l47 246h236l-47 -246h-236zM981 1653l47 246h238l-49 -246h-236z" />
<glyph unicode="&#x179;" horiz-adv-x="1485" d="M-53 0l45 238l971 964h-760l57 291h1256l-48 -238l-968 -964h805l-58 -291h-1300zM780 1636l246 264h280l-319 -264h-207z" />
<glyph unicode="&#x17a;" horiz-adv-x="1192" d="M-18 0l47 250l700 614h-555l49 256h977l-49 -250l-698 -614h579l-49 -256h-1001zM625 1269l346 376h293l-438 -376h-201z" />
<glyph unicode="&#x17b;" horiz-adv-x="1485" d="M-53 0l45 238l971 964h-760l57 291h1256l-48 -238l-968 -964h805l-58 -291h-1300zM790 1635l47 246h275l-47 -246h-275z" />
<glyph unicode="&#x17c;" horiz-adv-x="1192" d="M-18 0l47 250l700 614h-555l49 256h977l-49 -250l-698 -614h579l-49 -256h-1001zM516 1263l56 292h358l-56 -292h-358z" />
<glyph unicode="&#x17d;" horiz-adv-x="1485" d="M-53 0l45 238l971 964h-760l57 291h1256l-48 -238l-968 -964h805l-58 -291h-1300zM596 1899h172l148 -162l231 162h178l-243 -264h-349z" />
<glyph unicode="&#x17e;" horiz-adv-x="1192" d="M-18 0l47 250l700 614h-555l49 256h977l-49 -250l-698 -614h579l-49 -256h-1001zM393 1638h176l156 -227l244 227h196l-329 -376h-260z" />
<glyph unicode="&#x17f;" horiz-adv-x="891" d="M102 864l50 256h176l16 78q37 186 154 272t333 86h275l-47 -235h-197q-75 0 -110 -27q-34 -28 -47 -95l-234 -1199h-360l168 864h-177z" />
<glyph unicode="&#x180;" horiz-adv-x="1466" d="M24 0l240 1237h-154l40 205h154l22 114h358l-22 -114h328l-40 -205h-328l-55 -281q93 98 193 144q99 47 216 47q207 0 308 -165q101 -164 50 -423q-50 -259 -215 -423q-165 -165 -372 -165q-117 0 -198 47q-81 46 -136 144l-31 -162h-358zM490 559q-31 -159 14 -243 q45 -85 160 -85t192 84t108 244t-13 244t-159 84t-193 -85q-78 -84 -109 -243z" />
<glyph unicode="&#x181;" horiz-adv-x="1661" d="M-75 1079l15 77q26 138 87 203q23 24 61 53q87 63 229 76q51 5 116 5h578q311 0 432 -94q122 -94 81 -301q-21 -109 -87 -186q-66 -76 -170 -113q117 -36 166 -133t22 -238q-42 -216 -209 -322q-166 -106 -464 -106h-639l239 1231q-73 0 -79 -1q-46 -4 -64 -20 q-37 -34 -49 -84q-4 -14 -10 -47h-255zM579 262h226q116 0 184 49t87 148q19 97 -30 145q-48 49 -165 49h-226zM706 915h213q91 0 146 40q54 40 69 118q15 77 -24 117q-39 41 -130 41h-213z" />
<glyph unicode="&#x182;" horiz-adv-x="1561" d="M43 0l290 1493h1129l-56 -291h-744l-54 -278h254q283 0 421 -117q91 -77 91 -227q0 -58 -12 -119q-91 -461 -680 -461h-639zM479 262h226q233 0 269 187q5 24 5 46q0 138 -202 138h-226z" />
<glyph unicode="&#x183;" horiz-adv-x="1466" d="M24 0l302 1556h1029l-57 -291h-671l-60 -309q93 98 193 144q99 47 216 47q207 0 308 -165q101 -164 50 -423q-50 -259 -215 -423q-165 -165 -372 -165q-117 0 -198 47q-81 46 -136 144l-31 -162h-358zM490 559q-31 -159 14 -243q45 -85 160 -85t192 84t108 244t-13 244 t-159 84t-193 -85q-78 -84 -109 -243z" />
<glyph unicode="&#x184;" horiz-adv-x="1561" d="M124 0l180 924l-154 180l649 389l-110 -569h254q283 0 421 -117q125 -106 78 -346q-46 -238 -212 -344q-184 -117 -467 -117h-639zM560 262h226q121 0 184 45q67 49 85 142q18 91 -31 139q-44 45 -166 45h-226z" />
<glyph unicode="&#x185;" horiz-adv-x="1466" d="M76 0l179 924l-137 180l618 452l-117 -600q93 98 193 144q99 47 216 47q207 0 308 -165q101 -164 50 -423q-50 -259 -215 -423q-165 -165 -372 -165q-117 0 -198 47q-81 46 -136 144l-31 -162h-358zM542 559q-31 -159 14 -243q45 -85 160 -85t192 84t108 244t-13 244 t-159 84t-193 -85q-78 -84 -109 -243z" />
<glyph unicode="&#x186;" horiz-adv-x="1503" d="M-27 82l62 309q96 -73 193 -107t208 -34q231 0 387 178t156 445q0 172 -96 270t-265 98q-101 0 -214.5 -36.5t-254.5 -114.5l66 331q138 49 265 74t241 25q301 0 481 -165t180 -437q0 -179 -57 -337.5t-168 -289.5q-131 -154 -315.5 -237t-397.5 -83q-116 0 -233 27.5 t-238 83.5z" />
<glyph unicode="&#x187;" horiz-adv-x="1503" d="M66 745q69 358 328 567q258 208 631 208q49 0 94 -4q64 149 179 238q179 138 486 138h78l-57 -291h-60q-120 0 -194 -67q-75 -67 -100 -197l-46 -237q-93 73 -190 107q-98 34 -213 34q-206 0 -349 -132q-144 -132 -189 -364q-45 -231 47 -363q93 -132 299 -132 q115 0 225 34q111 34 232 107l-60 -309q-117 -55 -237 -83q-121 -28 -246 -28q-373 0 -550 209q-178 208 -108 565z" />
<glyph unicode="&#x188;" horiz-adv-x="1214" d="M55 559q54 277 255 433q200 154 500 155q49 135 141 217q131 119 336 119h177l-46 -235h-62q-102 0 -149 -46t-73 -181l-44 -228q-63 50 -132 74t-148 24q-150 0 -251 -87q-100 -88 -131 -245q-30 -157 36 -245q67 -87 217 -87q84 0 164 25q81 25 154 74l-57 -293 q-90 -31 -179 -47q-90 -15 -177 -15q-303 0 -444 155q-140 156 -87 433z" />
<glyph unicode="&#x189;" horiz-adv-x="1731" d="M-4 643l51 260h205l115 590h405q290 0 435 -34.5t241 -115.5q97 -81 147 -197t50 -261q0 -201 -84.5 -381t-235.5 -303q-132 -109 -306.5 -155t-537.5 -46h-405l125 643h-205zM518 291h137q271 0 428.5 151.5t157.5 407.5q0 174 -103.5 263t-306.5 89h-135l-57 -299h246 l-51 -260h-246z" />
<glyph unicode="&#x18a;" horiz-adv-x="1800" d="M-75 1079l15 77q26 138 87 203q23 24 61 53q87 63 229 76q51 5 116 5h406q340 0 497 -49q156 -48 254 -164q85 -102 110 -233q26 -132 -7 -299q-33 -169 -109 -302q-77 -132 -202 -233q-143 -116 -320 -165q-177 -48 -513 -48h-406l239 1231q-73 0 -79 -1q-46 -4 -64 -20 q-37 -34 -49 -84q-4 -14 -10 -47h-255zM584 291h138q236 0 384 117q147 117 190 340q43 222 -58 338t-338 116h-138z" />
<glyph unicode="&#x18b;" horiz-adv-x="1561" d="M133 461q46 240 213 346q184 117 467 117h253l55 278h-644l56 291h1029l-290 -1493h-639q-283 0 -421 117q-126 106 -79 344zM515 449q-18 -93 31 -142q45 -45 166 -45h226l72 371h-226q-122 0 -184 -45q-67 -48 -85 -139z" />
<glyph unicode="&#x18c;" horiz-adv-x="1466" d="M52 559q51 259 216 423q165 165 372 165q117 0 198 -47q78 -44 133 -144l60 309h-669l57 291h1029l-302 -1556h-358l31 162q-93 -98 -192 -144q-99 -47 -216 -47q-207 0 -308 165q-101 164 -51 423zM423 559q-31 -160 13 -244t158 -84q115 0 192 84t108 244t-13 244 t-159 84q-114 0 -191 -84t-108 -244z" />
<glyph unicode="&#x18d;" horiz-adv-x="1407" d="M116 -356l46 238q109 -70 395 -70q203 0 217 73q13 66 -197 99q-242 37 -360 149q-144 135 -90 412q52 265 246 421q195 157 482 157q286 0 421 -157q134 -156 80 -431q-40 -205 -235 -369q-61 -50 -131 -82q132 -79 101 -238q-53 -272 -581 -272q-265 0 -394 70z M498 544q-30 -153 26 -227q57 -77 154 -88q45 -5 85 -15q57 22 110 78q83 87 113 244q31 157 -18 245q-48 88 -163 88q-112 0 -195 -89q-84 -90 -112 -236z" />
<glyph unicode="&#x18e;" horiz-adv-x="1399" d="M43 0l56 291h676l67 342h-615l57 291h615l54 278h-654l56 291h1039l-290 -1493h-1061z" />
<glyph unicode="&#x18f;" horiz-adv-x="1741" d="M74 569q6 133 30 260h1154q23 144 -30 240q-95 172 -353 172q-118 0 -248 -35t-280 -106l61 309q154 55 301 83t281 28q241 0 397 -79q157 -79 233 -239q62 -131 57 -290q-5 -157 -65 -334q-56 -162 -162 -291q-130 -159 -308 -237q-177 -79 -409 -79q-297 0 -478 165 q-192 175 -181 433zM480 571q9 -143 78 -226q79 -95 220 -95q115 0 204 48q90 49 153 144q39 60 67 129h-722z" />
<glyph unicode="&#x190;" horiz-adv-x="1425" d="M75 424q28 149 126 246q97 96 256 135q-129 34 -182 117q-52 84 -27 215q37 192 200 287q164 96 455 96q108 0 216 -16q109 -16 217 -48l-55 -282q-86 41 -177 62t-184 21q-126 0 -204 -47t-95 -133q-18 -93 45 -139q62 -45 207 -45h162l-49 -248h-154q-163 0 -256 -53 q-94 -52 -114 -154q-19 -99 52 -152t224 -53q103 0 215 27q112 28 231 82l-58 -297q-120 -37 -239 -55q-120 -19 -235 -19q-326 0 -473 115q-148 116 -104 338z" />
<glyph unicode="&#x191;" horiz-adv-x="1399" d="M-300 -410l57 291h60q120 0 194 67q75 67 100 197l262 1348h1039l-57 -291h-654l-54 -278h615l-56 -291h-615l-95 -488q-54 -279 -233 -417q-178 -138 -485 -138h-78z" />
<glyph unicode="&#x192;" horiz-adv-x="891" d="M-310 -426l46 235h198q76 0 111 27q36 28 49 96l181 932h-178l50 256h178l15 78q36 183 155 270q119 88 333 88h274l-46 -235h-198q-76 0 -111 -27q-36 -28 -49 -96l-15 -78h306l-50 -256h-306l-181 -932q-36 -183 -155 -270q-119 -88 -333 -88h-274z" />
<glyph unicode="&#x193;" horiz-adv-x="1681" d="M66 745q70 361 332 568t648 207q90 0 174 -10q63 153 181 244q179 138 486 138h78l-57 -291h-60q-120 0 -194 -67q-75 -67 -100 -197l-46 -237q-111 71 -228 106t-241 35q-230 0 -379 -129q-150 -128 -196 -367q-46 -237 49 -366t316 -129q60 0 112 8q53 7 98 23l56 290 h-235l50 258h600l-139 -718q-158 -70 -320 -105t-327 -35q-373 0 -550 209q-178 208 -108 565z" />
<glyph unicode="&#x194;" horiz-adv-x="1624" d="M192 1493h392l284 -675l546 675h392l-803 -996l38 -92q87 -207 100 -306q14 -99 14 -143t-5 -70q-28 -153 -138 -235q-110 -81 -387 -81q-276 0 -355 81q-56 58 -56 153q0 38 11 91t76 178t232 332l75 92zM560 -123q0 -16 22 -44q21 -28 89 -28q67 0 104 31q36 31 39 55 q3 23 3 65q0 41 -63 194l-11 25l-21 -25q-124 -154 -139 -195q-23 -61 -23 -78z" />
<glyph unicode="&#x195;" horiz-adv-x="2140" d="M21 0l302 1556h358l-116 -600q100 98 200 144q100 47 210 47q194 0 271 -119q78 -119 34 -346l-44 -222q-32 -169 -25 -181q31 -52 78 -48l21 2q118 0 219 97q93 88 120 230q21 107 -14 222q-24 84 -94 156l34 182q138 -3 224 -43q39 -18 87 -50q56 -37 83 -104 q2 -5 31 -88q38 -108 8 -266q-50 -254 -233 -411q-185 -158 -428 -158l-137 -2q-202 -3 -290 118q-87 120 -44 344l12 60q29 147 33 202t-7 81q-14 35 -46 55q-33 19 -79 19q-112 0 -192 -87q-81 -86 -111 -239l-107 -551h-358z" />
<glyph unicode="&#x196;" horiz-adv-x="892" d="M151 555l182 938h385l-182 -938q-25 -130 23 -197t168 -67h60l-56 -291h-78q-307 0 -432 138q-124 138 -70 417z" />
<glyph unicode="&#x197;" horiz-adv-x="797" d="M-14 621l50 260h191l119 612h385l-119 -612h201l-50 -260h-201l-121 -621h-385l121 621h-191z" />
<glyph unicode="&#x198;" horiz-adv-x="1587" d="M40 0l290 1493h385l-105 -545l577 479q112 93 243 93q135 0 208 -93q55 -70 55 -160q0 -31 -7 -64l-42 -216h-240l22 113q6 30 -7 48q-22 30 -47 30q-41 0 -67 -22l-444 -370l640 -786h-482l-479 588l-115 -588h-385z" />
<glyph unicode="&#x199;" horiz-adv-x="1362" d="M21 0l212 1094q44 223 177 344q131 118 336 118h281l-45 -235h-166q-101 0 -149 -46q-49 -46 -76 -181l-74 -385l491 411h416l-646 -514l472 -606h-434l-346 467l-91 -467h-358z" />
<glyph unicode="&#x19a;" horiz-adv-x="738" d="M-21 621l51 260h183l131 675h358l-131 -675h177l-51 -260h-177l-120 -621h-358l120 621h-183z" />
<glyph unicode="&#x19b;" horiz-adv-x="1212" d="M-90 0l547 1020l-37 209l-337 -101l-12 129l328 97l-36 202h358l18 -101l348 99l10 -129l-335 -97l238 -1328h-358l-92 514l-282 -514h-358z" />
<glyph unicode="&#x19c;" horiz-adv-x="2134" d="M113 438l205 1055h360l-186 -957q-4 -13 -7 -27t-8 -40q-23 -119 1 -173q25 -53 103 -53q102 0 174 84q71 84 104 243l180 923h360l-186 -957q-36 -186 -15 -240q22 -53 104 -53q103 0 175 85q73 85 103 241l180 924h360l-290 -1493h-360l31 164q-84 -95 -179 -143 t-198 -48q-116 0 -194 56t-104 157q-89 -104 -193 -158q-104 -55 -216 -55q-182 0 -271 119q-80 107 -33 346z" />
<glyph unicode="&#x19d;" horiz-adv-x="1714" d="M-300 -410l57 291h60q120 0 194 67q75 67 100 197l262 1348h430l344 -1024l199 1024h365l-290 -1493h-430l-344 1024l-171 -879q-47 -242 -152 -360q-28 -32 -61 -57q-178 -138 -485 -138h-78z" />
<glyph unicode="&#x19e;" horiz-adv-x="1458" d="M102 0l218 1120h358l-32 -164q100 98 200 144q100 47 210 47q194 0 271 -119q78 -119 33 -346l-215 -1108h-360l105 537l79 411q29 145 33 200t-7 81q-14 35 -46 55q-33 19 -79 19q-112 0 -192 -87q-81 -86 -111 -239l-107 -551h-358z" />
<glyph unicode="&#x19f;" horiz-adv-x="1741" d="M74 569q0 183 55 345t162 292q128 158 305.5 236t409.5 78q298 0 479.5 -165.5t181.5 -432.5q0 -182 -55.5 -344t-161.5 -291q-130 -159 -307.5 -237.5t-409.5 -78.5q-297 0 -478 165t-181 433zM481 579q0 -119 44 -199q72 -130 249 -130q176 0 298 130q100 106 148 282 h-734q-5 -43 -5 -83zM549 920h709q-1 114 -44 191q-72 130 -248 130q-177 0 -299 -130q-72 -77 -118 -191z" />
<glyph unicode="&#x1a0;" horiz-adv-x="1741" d="M80 569q0 183 55 345t162 292q128 158 305.5 236t409.5 78q298 0 479.5 -165.5t181.5 -432.5q0 -182 -55.5 -344t-161.5 -291q-130 -159 -307.5 -237.5t-409.5 -78.5q-297 0 -478 165t-181 433zM485 612q0 -172 79 -267t220 -95q115 0 204.5 48.5t152.5 143.5 q60 91 92.5 205t32.5 234q0 176 -79.5 268t-230.5 92q-200 0 -335.5 -179.5t-135.5 -449.5zM1415 1240l28 141q57 -50 90 -69t59 -19q39 0 69 29.5t40 78.5q7 39 7 77.5t-8 78.5h156q0 -55 -3.5 -102t-11.5 -88q-22 -115 -80 -176.5t-144 -61.5q-53 0 -102.5 27t-99.5 84z " />
<glyph unicode="&#x1a1;" horiz-adv-x="1407" d="M81 444q0 126 46 246.5t132 220.5q100 116 238.5 176t306.5 60q250 0 393 -127t143 -346q0 -127 -45 -246.5t-131 -218.5q-102 -118 -241 -178t-310 -60q-247 0 -389.5 127t-142.5 346zM456 444q0 -106 48.5 -161.5t141.5 -55.5q139 0 229 126.5t90 322.5 q0 105 -48.5 160t-141.5 55q-139 0 -229 -126t-90 -321zM1136 850l28 141q57 -50 90 -69t59 -19q39 0 69 29.5t40 78.5q7 39 7 77.5t-8 78.5h156q0 -55 -3.5 -102t-11.5 -88q-22 -115 -80 -176.5t-144 -61.5q-53 0 -102.5 27t-99.5 84z" />
<glyph unicode="&#x1a2;" horiz-adv-x="2281" d="M102 745q70 363 315 569t604 206q130 0 235 -27h405q310 0 432 -138q124 -140 70 -417l-182 -938h-385l182 938q26 130 -23 197q-48 67 -168 67h-64l-199 -1025q-245 -206 -605 -206q-359 0 -523 206t-94 568zM500 745q-46 -235 26 -365t248 -130q177 0 299 130l142 731 q-72 130 -249 130q-176 0 -298 -130t-168 -366z" />
<glyph unicode="&#x1a3;" horiz-adv-x="1971" d="M128 559q54 276 248 432q193 156 483 156q121 0 214 -27h420q205 0 290 -118q85 -119 41 -344l-213 -1100h-358l213 1100q27 135 -2 181t-131 46h-73l-147 -758q-193 -156 -482 -156q-290 0 -423 156q-134 156 -80 432zM501 559q-31 -161 15 -247q46 -85 165 -85 q117 0 195 85l96 494q-45 85 -162 85q-119 0 -198 -85q-80 -86 -111 -247z" />
<glyph unicode="&#x1a4;" horiz-adv-x="1601" d="M-75 1079l15 77q26 138 87 203q23 24 61 53q87 63 229 76q51 5 116 5h639q285 0 413 -127q128 -126 82 -360q-45 -235 -222 -362q-177 -126 -462 -126h-254l-101 -518h-385l239 1231q-73 0 -79 -1q-46 -4 -64 -20q-37 -34 -49 -84q-4 -14 -10 -47h-255zM683 797h213 q112 0 183 55q72 54 91 154q20 100 -31 154q-50 54 -162 54h-213z" />
<glyph unicode="&#x1a5;" horiz-adv-x="1466" d="M-21 -426l316 1624q33 168 155 270q104 88 333 88h274l-46 -235h-198q-76 0 -111 -27q-36 -28 -49 -96l-47 -242q93 98 192 144q99 47 216 47q207 0 308 -165q101 -164 51 -423q-51 -259 -215 -423q-165 -165 -372 -165q-117 0 -198 47q-81 46 -136 144l-115 -588h-358z M529 559q-31 -159 14 -243q45 -85 160 -85t192 84t108 244t-13 244t-159 84t-193 -85q-78 -84 -109 -243z" />
<glyph unicode="&#x1a6;" horiz-adv-x="1577" d="M72 0l290 1493h385l-50 -258h203q295 0 413 -99q88 -73 88 -209q0 -48 -11 -104q-57 -293 -362 -383q76 -18 126 -81.5t89 -192.5l139 -465h-410l-122 412q-33 112 -81.5 153t-142.5 41h-109l-60 -307h-385zM568 573h162q121 0 182.5 45t81.5 148q6 32 6 74t-37 79 t-158 37h-162z" />
<glyph unicode="&#x1a7;" horiz-adv-x="1475" d="M-3 459q37 188 162 290t383 152l171 33q121 24 172 58q51 33 63 93q16 80 -43 118t-197 38q-104 0 -226 -28q-123 -28 -256 -83l61 316q146 37 280 56q134 18 257 18q270 0 390 -120q121 -120 78 -343q-35 -178 -159 -283t-357 -153l-156 -33q-141 -30 -194 -68t-67 -108 q-15 -78 44 -120t185 -42q124 0 265 38q141 39 298 115l-63 -325q-153 -53 -301 -80q-149 -27 -291 -27q-301 0 -424 121q-123 120 -75 367z" />
<glyph unicode="&#x1a8;" horiz-adv-x="1219" d="M-14 330q34 171 144 251q111 80 393 115l64 9q100 11 141 34q42 23 51 66q10 53 -34 79q-45 25 -147 25q-95 0 -207 -24q-111 -24 -236 -72l53 272q134 32 246 47t211 15q252 0 358 -86q105 -86 70 -264q-32 -165 -144 -246q-111 -81 -356 -111l-65 -8q-111 -13 -152 -36 q-41 -24 -51 -72q-11 -57 37 -86q47 -29 152 -29q116 0 234 26q117 26 234 78l-53 -272q-131 -35 -253 -53q-122 -17 -233 -17q-262 0 -377 90q-114 90 -80 269z" />
<glyph unicode="&#x1a9;" horiz-adv-x="1399" d="M43 0l62 321l568 473l-400 391l60 308h1039l-56 -291h-671l414 -404l-609 -507h710l-56 -291h-1061z" />
<glyph unicode="&#x1aa;" horiz-adv-x="1130" d="M70 1245q51 283 340 308v1h7h57h113q205 0 290 -118q71 -99 55 -256q116 -1 171 -1l-41 -211h-168l-205 -1054q-13 -68 12 -96q25 -27 101 -27h198l-46 -235h-274q-214 0 -299 88q-85 87 -50 270l205 1054l-208 1q-308 1 -258 276zM278 1254q-13 -75 91 -75q64 0 203 1 q4 64 -14 93q-29 46 -131 46h-44q-95 -7 -105 -65z" />
<glyph unicode="&#x1ab;" horiz-adv-x="979" d="M98 864l50 256h178l62 318h358l-62 -318h369l-50 -256h-369l-92 -475q-15 -78 10 -105q26 -28 118 -28h184l-50 -256q-46 -210 -171 -324q-131 -118 -336 -118h-177l46 235h62q102 0 149 46q44 43 69 162q-170 10 -232 87q-71 89 -30 301l92 475h-178z" />
<glyph unicode="&#x1ac;" horiz-adv-x="1447" d="M74 972l34 177q35 181 147 263q112 81 326 81h208h792l-56 -291h-495l-234 -1202h-385l234 1202h-3q-153 0 -209 -38t-77 -143l-9 -49h-273z" />
<glyph unicode="&#x1ad;" horiz-adv-x="979" d="M44 864l49 256h178l16 78q32 168 154 270q105 88 333 88h274l-45 -235h-198q-76 0 -112 -27q-35 -28 -48 -96l-16 -78h369l-49 -256h-369l-93 -475q-15 -78 11 -105q26 -28 118 -28h184l-50 -256h-307q-212 0 -284 88q-71 89 -30 301l93 475h-178z" />
<glyph unicode="&#x1ae;" horiz-adv-x="1397" d="M138 1202l57 291h1376l-57 -291h-495l-205 -1057q-25 -130 23 -197q49 -67 169 -67h60l-57 -291h-78q-307 0 -432 138q-124 138 -70 417l205 1057h-496z" />
<glyph unicode="&#x1af;" horiz-adv-x="1663" d="M138 414q0 36 5 80.5t16 103.5l174 895h385l-174 -894q-10 -48 -14.5 -85t-4.5 -65q0 -98 52.5 -146.5t156.5 -48.5q140 0 215 78.5t111 265.5l174 895h385l-174 -895q-65 -330 -246.5 -478.5t-519.5 -148.5q-265 0 -403 113.5t-138 329.5zM1480 1242l28 141 q57 -50 90 -69t59 -19q39 0 69 29.5t40 78.5q7 39 7 77.5t-8 78.5h156q0 -55 -3.5 -102t-11.5 -88q-22 -115 -80 -176.5t-144 -61.5q-53 0 -102.5 27t-99.5 84z" />
<glyph unicode="&#x1b0;" horiz-adv-x="1458" d="M117 281q0 35 4 74t12 81l131 684h359l-113 -583q-12 -57 -18 -97t-6 -63q0 -63 35 -98t100 -35q111 0 191 86t110 239l108 551h359l-217 -1120h-361l33 164q-92 -97 -193 -145t-213 -48q-153 0 -237 81t-84 229zM1187 850l28 141q57 -50 90 -69t59 -19q39 0 69 29.5 t40 78.5q7 39 7 77.5t-8 78.5h156q0 -55 -3.5 -102t-11.5 -88q-22 -115 -80 -176.5t-144 -61.5q-53 0 -102.5 27t-99.5 84z" />
<glyph unicode="&#x1b1;" horiz-adv-x="1575" d="M85 661q32 164 120 303t238 260h-291l50 256h609l-57 -291q-142 -85 -234 -217q-92 -133 -124 -297q-39 -203 40 -319q78 -117 255 -117q178 0 303 117q124 116 163 319q32 165 -8 297q-41 131 -150 217l57 291h609l-50 -256h-291q102 -121 136 -260t2 -303 q-60 -313 -285 -501q-225 -189 -538 -189q-312 0 -463 189q-151 188 -91 501z" />
<glyph unicode="&#x1b2;" horiz-adv-x="1666" d="M151 555l182 938h385l-182 -938q-25 -130 23 -197t168 -67h60q178 0 303 117q143 134 169 267q40 203 -8 297q-84 162 -233 257l28 145h270q164 -137 246 -410q37 -123 2 -303q-49 -253 -291 -449q-261 -212 -542 -212h-78q-307 0 -432 138q-124 138 -70 417z" />
<glyph unicode="&#x1b3;" horiz-adv-x="1633" d="M122 1493h421l237 -532l286 342q181 217 394 217q135 0 208 -93q55 -70 55 -160q0 -31 -7 -64l-42 -216h-240l14 69q5 30 -8 48q-22 29 -46 29q-56 0 -117 -72l-368 -432l-123 -629h-385l123 629z" />
<glyph unicode="&#x1b4;" horiz-adv-x="1594" d="M51 -442l45 235h112q91 0 139 29q45 28 84 104l16 31l-273 1163h358l153 -760l300 564q119 223 389 223q101 0 177.5 -50t110.5 -136q21 -54 21 -115q0 -35 -7 -73l-25 -127h-243l11 60q7 33 -1 61.5t-28 45t-47.5 16.5t-53.5 -17q-29 -18 -45 -45l-18 -30l-488 -843 q-109 -188 -216 -262q-109 -74 -264 -74h-207z" />
<glyph unicode="&#x1b5;" horiz-adv-x="1485" d="M-53 0l45 233l396 388h-178l50 260h394l328 321h-778l56 291h1255l-45 -233l-387 -379h194l-50 -260h-410l-337 -330h824l-56 -291h-1301z" />
<glyph unicode="&#x1b6;" horiz-adv-x="1192" d="M-17 0l49 250l244 211h-117l43 221h329l210 182h-565l50 256h977l-49 -250l-217 -188h124l-43 -221h-336l-237 -205h590l-50 -256h-1002z" />
<glyph unicode="&#x1b7;" horiz-adv-x="1582" d="M42 55l56 290q142 -74 289 -112t297 -38q157 0 249 53t111 152q20 102 -53 154q-74 53 -237 53h-187l48 245l373 350h-745l57 291h1222l-49 -250l-469 -434q131 -11 208 -32q120 -33 184 -145q58 -103 30 -246q-43 -222 -235 -338q-193 -115 -556 -115q-154 0 -304 30 q-149 31 -289 92z" />
<glyph unicode="&#x1b8;" horiz-adv-x="1582" d="M20 386q28 143 127 246q107 112 239 145q86 21 222 32l-301 434l49 250h1222l-57 -291h-745l237 -350l-48 -245h-187q-163 0 -256 -53q-94 -52 -114 -154q-19 -99 52 -152t229 -53q149 0 311 38t333 112l-57 -290q-163 -61 -325 -92q-161 -30 -316 -30q-363 0 -510 115 q-148 116 -105 338z" />
<glyph unicode="&#x1b9;" horiz-adv-x="1312" d="M12 13q28 143 127 245q107 113 239 146q91 23 255 32l-334 434l49 250h977l-50 -256h-565l295 -385l-48 -245h-187q-163 0 -256 -52q-94 -53 -114 -155q-19 -99 52 -152t224 -53q103 0 215 28q112 27 231 81l-58 -297q-120 -37 -240 -56q-119 -18 -234 -18 q-326 0 -473 116q-148 115 -105 337z" />
<glyph unicode="&#x1ba;" horiz-adv-x="1192" d="M-23 -186q0 28 6 59q28 141 132 208q88 57 369 94l62 8q102 13 132 27q39 18 47 56q1 8 1 15q0 34 -36 50q-46 21 -293 21h-252l591 512h-565l50 256h977l-49 -250l-374 -324q108 -17 177 -65q79 -56 79 -159q0 -28 -6 -61q-27 -138 -132 -205q-101 -65 -336 -92l-61 -7 q-108 -12 -144 -30q-39 -19 -47 -59q-1 -8 -1 -15q0 -37 38 -57q46 -24 146 -24q110 0 221 22q111 21 220 64l-43 -226q-134 -31 -239 -44q-116 -14 -222 -14q-246 0 -359 75q-89 59 -89 165z" />
<glyph unicode="&#x1bb;" horiz-adv-x="1425" d="M14 0l55 283l349 263h-226l51 260h516q50 44 82 87q47 63 60 131q21 105 -37 169t-175 64q-90 0 -205 -39q-114 -38 -251 -114l64 328q138 43 269 66q132 22 254 22q268 0 393 -118q126 -118 85 -329q-24 -122 -107 -227q-15 -19 -35 -40h27l-51 -260h-284l-351 -263h657 l-55 -283h-1085z" />
<glyph unicode="&#x1bc;" horiz-adv-x="1582" d="M23 400h385q-19 -99 52 -152t224 -53q157 0 249 53t111 152q20 102 -53 154q-74 53 -237 53h-202h-385l48 245l125 641h1061l-57 -291h-676l-68 -350h219q255 0 412 -60q106 -40 165 -160q56 -115 30 -246q-43 -222 -235 -338q-193 -115 -556 -115q-381 0 -510 115 q-145 130 -102 352z" />
<glyph unicode="&#x1bd;" horiz-adv-x="1312" d="M-61 -366l57 297q98 -54 199 -81q101 -28 204 -28q153 0 245 53t111 152q20 102 -53 155q-74 52 -237 52h-314l48 245l125 641h849l-43 -221h-491l-82 -420h6q243 0 343 -47q148 -70 201 -174q56 -115 30 -245q-43 -222 -235 -337q-193 -116 -519 -116q-115 0 -227 18 q-111 19 -217 56z" />
<glyph unicode="&#x1be;" horiz-adv-x="1173" d="M-55 40l58 298q69 -43 143 -64q75 -22 155 -22q179 0 300 114q71 66 90 162q14 71 -29 147q-63 114 -280 114h-93l59 307h-157l38 194h157l29 148h358l-29 -148h258l-38 -194h-258l-13 -67q182 -31 266 -125q127 -145 82 -376q-42 -215 -200 -348q-249 -210 -491 -210 q-181 0 -258 18q-78 17 -147 52z" />
<glyph unicode="&#x1bf;" horiz-adv-x="1466" d="M-25 -426l301 1546h358l-32 -165q108 111 201 148q112 44 300 44h7q202 0 260 -112q49 -92 49 -185q0 -41 -9 -81q-97 -427 -1020 -901l-57 -294h-358zM444 145q541 334 571 498q7 38 7 70q0 65 -29 109q-43 65 -169 65q-89 0 -275 -203q-52 -270 -105 -539z" />
<glyph unicode="&#x1c0;" horiz-adv-x="762" d="M1 -426l374 1919h385l-374 -1919h-385z" />
<glyph unicode="&#x1c1;" horiz-adv-x="1349" d="M1 -426l374 1919h385l-374 -1919h-385zM588 -426l374 1919h385l-374 -1919h-385z" />
<glyph unicode="&#x1c2;" horiz-adv-x="1114" d="M-47 241l46 237h351l43 220h-351l46 235h351l109 560h385l-109 -560h351l-46 -235h-351l-43 -220h351l-46 -237h-351l-130 -667h-385l130 667h-351z" />
<glyph unicode="&#x1c3;" horiz-adv-x="762" d="M56 0l70 356h360l-69 -356h-361zM206 502l28 418l113 573h361l-113 -573l-131 -418h-258z" />
<glyph unicode="&#x1c4;" horiz-adv-x="3170" d="M43 0l291 1493h405q290 0 435 -34.5t241 -115.5q97 -81 146 -196.5t49 -261.5q0 -203 -83.5 -382.5t-234.5 -301.5q-132 -109 -306.5 -155t-536.5 -46h-406zM485 291h138q269 0 426 151t157 408q0 174 -102.5 263t-304.5 89h-135zM1647 0l45 238l971 964h-760l57 291 h1256l-48 -238l-968 -964h805l-58 -291h-1300zM2296 1899h172l148 -162l231 162h178l-243 -264h-349z" />
<glyph unicode="&#x1c5;" horiz-adv-x="2970" d="M43 0l291 1493h405q290 0 435 -34.5t241 -115.5q97 -81 146 -196.5t49 -261.5q0 -203 -83.5 -382.5t-234.5 -301.5q-132 -109 -306.5 -155t-536.5 -46h-406zM485 291h138q269 0 426 151t157 408q0 174 -102.5 263t-304.5 89h-135zM1682 0l47 250l700 614h-555l49 256h977 l-49 -250l-698 -614h579l-49 -256h-1001zM2093 1638h176l156 -227l244 227h196l-329 -376h-260z" />
<glyph unicode="&#x1c6;" horiz-adv-x="2676" d="M74 418q0 129 38.5 251t110.5 222q91 126 205.5 191t245.5 65q115 0 195.5 -46.5t136.5 -144.5l116 600h361l-303 -1556h-361l33 162q-82 -98 -172 -144.5t-197 -46.5q-189 0 -299 120t-110 327zM444 440q0 -102 47.5 -155.5t137.5 -53.5q138 0 224.5 127t86.5 332 q0 93 -48.5 145t-135.5 52q-136 0 -224 -125.5t-88 -321.5zM1448 0l47 250l700 614h-555l49 256h977l-49 -250l-698 -614h579l-49 -256h-1001zM1859 1638h176l156 -227l244 227h196l-329 -376h-260z" />
<glyph unicode="&#x1c7;" horiz-adv-x="2000" d="M43 0l291 1493h385l-234 -1202h674l-55 -291h-1061zM965 -410l57 291h60q119 0 194.5 67.5t100.5 196.5l262 1348h385l-262 -1348q-58 -292 -227.5 -423.5t-491.5 -131.5h-78z" />
<glyph unicode="&#x1c8;" horiz-adv-x="2005" d="M43 0l291 1493h385l-234 -1202h674l-55 -291h-1061zM1043 -442l45 235h63q101 0 147.5 45.5t72.5 181.5l215 1100h360l-215 -1100q-46 -235 -171.5 -348.5t-338.5 -113.5h-178zM1612 1264l58 292h360l-57 -292h-361z" />
<glyph unicode="&#x1c9;" horiz-adv-x="1372" d="M63 0l302 1556h360l-303 -1556h-359zM440 -442l45 235h63q101 0 147.5 45.5t72.5 181.5l215 1100h360l-215 -1100q-46 -235 -171.5 -348.5t-338.5 -113.5h-178zM1009 1264l58 292h360l-57 -292h-361z" />
<glyph unicode="&#x1ca;" horiz-adv-x="2444" d="M43 0l291 1493h430l342 -1034l201 1034h364l-291 -1493h-430l-342 1034l-200 -1034h-365zM1374 -410l57 291h60q119 0 194.5 67.5t100.5 196.5l262 1348h385l-262 -1348q-58 -292 -227.5 -423.5t-491.5 -131.5h-78z" />
<glyph unicode="&#x1cb;" horiz-adv-x="2484" d="M43 0l291 1493h430l342 -1034l201 1034h364l-291 -1493h-430l-342 1034l-200 -1034h-365zM1452 -442l45 235h63q101 0 147.5 45.5t72.5 181.5l215 1100h360l-215 -1100q-46 -235 -171.5 -348.5t-338.5 -113.5h-178zM2021 1264l58 292h360l-57 -292h-361z" />
<glyph unicode="&#x1cc;" horiz-adv-x="2178" d="M63 0l218 1120h360l-33 -164q99 97 199 144t209 47q155 0 239 -81t84 -228q0 -32 -4.5 -71t-13.5 -85l-133 -682h-359l113 584q12 57 18.5 96.5t6.5 62.5q0 64 -35.5 99t-100.5 35q-111 0 -190.5 -86.5t-110.5 -239.5l-108 -551h-359zM1196 -442l45 235h63 q101 0 147.5 45.5t72.5 181.5l215 1100h360l-215 -1100q-46 -235 -171.5 -348.5t-338.5 -113.5h-178zM1765 1264l58 292h360l-57 -292h-361z" />
<glyph unicode="&#x1cd;" horiz-adv-x="1585" d="M-133 0l844 1493h440l264 -1493h-366l-43 272h-596l-148 -272h-395zM555 543h401l-90 575zM631 1899h172l148 -162l231 162h178l-243 -264h-349z" />
<glyph unicode="&#x1ce;" horiz-adv-x="1382" d="M35 276q0 214 165.5 327.5t477.5 113.5h211l4 28q3 14 3.5 20t0.5 11q0 66 -62.5 99.5t-185.5 33.5q-111 0 -215 -23t-201 -69l54 273q112 28 229.5 42.5t243.5 14.5q249 0 370 -85.5t121 -260.5q0 -34 -4.5 -74.5t-13.5 -87.5l-125 -639h-358l30 166 q-88 -100 -186 -147.5t-213 -47.5q-159 0 -252.5 82.5t-93.5 222.5zM403 340q0 -61 40.5 -96t111.5 -35q110 0 184 66.5t99 187.5l8 41h-172q-134 0 -202.5 -41.5t-68.5 -122.5zM488 1638h176l156 -227l244 227h196l-329 -376h-260z" />
<glyph unicode="&#x1cf;" horiz-adv-x="762" d="M43 0l291 1493h385l-291 -1493h-385zM239 1899h172l148 -162l231 162h178l-243 -264h-349z" />
<glyph unicode="&#x1d0;" horiz-adv-x="702" d="M63 0l218 1120h360l-219 -1120h-359zM163 1638h176l156 -227l244 227h196l-329 -376h-260z" />
<glyph unicode="&#x1d1;" horiz-adv-x="1741" d="M74 569q0 183 55 345t162 292q128 158 305.5 236t409.5 78q298 0 479.5 -165.5t181.5 -432.5q0 -182 -55.5 -344t-161.5 -291q-130 -159 -307.5 -237.5t-409.5 -78.5q-297 0 -478 165t-181 433zM479 612q0 -172 79 -267t220 -95q115 0 204.5 48.5t152.5 143.5 q60 91 92.5 205t32.5 234q0 176 -79.5 268t-230.5 92q-200 0 -335.5 -179.5t-135.5 -449.5zM736 1899h172l148 -162l231 162h178l-243 -264h-349z" />
<glyph unicode="&#x1d2;" horiz-adv-x="1407" d="M74 444q0 126 46 246.5t132 220.5q100 116 238.5 176t306.5 60q250 0 393 -127t143 -346q0 -127 -45 -246.5t-131 -218.5q-102 -118 -241 -178t-310 -60q-247 0 -389.5 127t-142.5 346zM449 444q0 -106 48.5 -161.5t141.5 -55.5q139 0 229 126.5t90 322.5 q0 105 -48.5 160t-141.5 55q-139 0 -229 -126t-90 -321zM523 1638h176l156 -227l244 227h196l-329 -376h-260z" />
<glyph unicode="&#x1d3;" horiz-adv-x="1663" d="M139 414q0 36 5 80.5t16 103.5l174 895h385l-174 -894q-10 -48 -14.5 -85t-4.5 -65q0 -98 52.5 -146.5t156.5 -48.5q140 0 215 78.5t111 265.5l174 895h385l-174 -895q-65 -330 -246.5 -478.5t-519.5 -148.5q-265 0 -403 113.5t-138 329.5zM666 1899h172l148 -162 l231 162h178l-243 -264h-349z" />
<glyph unicode="&#x1d4;" horiz-adv-x="1458" d="M123 281q0 35 4 74t12 81l131 684h359l-113 -583q-12 -57 -18 -97t-6 -63q0 -63 35 -98t100 -35q111 0 191 86t110 239l108 551h359l-217 -1120h-361l33 164q-92 -97 -193 -145t-213 -48q-153 0 -237 81t-84 229zM523 1638h176l156 -227l244 227h196l-329 -376h-260z" />
<glyph unicode="&#x1d5;" horiz-adv-x="1663" d="M139 414q0 36 5 80.5t16 103.5l174 895h385l-174 -894q-10 -48 -14.5 -85t-4.5 -65q0 -98 52.5 -146.5t156.5 -48.5q140 0 215 78.5t111 265.5l174 895h385l-174 -895q-65 -330 -246.5 -478.5t-519.5 -148.5q-265 0 -403 113.5t-138 329.5zM694 1624l47 246h236l-47 -246 h-236zM757 1942l37 188h631l-37 -188h-631zM1089 1624l47 246h238l-49 -246h-236z" />
<glyph unicode="&#x1d6;" horiz-adv-x="1458" d="M123 281q0 35 4 74t12 81l131 684h359l-113 -583q-12 -57 -18 -97t-6 -63q0 -63 35 -98t100 -35q111 0 191 86t110 239l108 551h359l-217 -1120h-361l33 164q-92 -97 -193 -145t-213 -48q-153 0 -237 81t-84 229zM528 1339l47 246h238l-49 -246h-236zM585 1683l37 188 h631l-37 -188h-631zM924 1339l49 246h235l-49 -246h-235z" />
<glyph unicode="&#x1d7;" horiz-adv-x="1663" d="M139 414q0 36 5 80.5t16 103.5l174 895h385l-174 -894q-10 -48 -14.5 -85t-4.5 -65q0 -98 52.5 -146.5t156.5 -48.5q140 0 215 78.5t111 265.5l174 895h385l-174 -895q-65 -330 -246.5 -478.5t-519.5 -148.5q-265 0 -403 113.5t-138 329.5zM662 1624l47 246h236l-47 -246 h-236zM926 1901l246 264h280l-319 -264h-207zM1057 1624l47 246h238l-49 -246h-236z" />
<glyph unicode="&#x1d8;" horiz-adv-x="1458" d="M123 281q0 35 4 74t12 81l131 684h359l-113 -583q-12 -57 -18 -97t-6 -63q0 -63 35 -98t100 -35q111 0 191 86t110 239l108 551h359l-217 -1120h-361l33 164q-92 -97 -193 -145t-213 -48q-153 0 -237 81t-84 229zM526 1336l47 246h236l-47 -246h-236zM790 1613l246 264 h280l-319 -264h-207zM921 1336l47 246h238l-49 -246h-236z" />
<glyph unicode="&#x1d9;" horiz-adv-x="1663" d="M139 414q0 36 5 80.5t16 103.5l174 895h385l-174 -894q-10 -48 -14.5 -85t-4.5 -65q0 -98 52.5 -146.5t156.5 -48.5q140 0 215 78.5t111 265.5l174 895h385l-174 -895q-65 -330 -246.5 -478.5t-519.5 -148.5q-265 0 -403 113.5t-138 329.5zM654 1624l47 246h236l-47 -246 h-236zM704 2165h172l148 -162l231 162h178l-243 -264h-349zM1049 1624l47 246h238l-49 -246h-236z" />
<glyph unicode="&#x1da;" horiz-adv-x="1458" d="M123 281q0 35 4 74t12 81l131 684h359l-113 -583q-12 -57 -18 -97t-6 -63q0 -63 35 -98t100 -35q111 0 191 86t110 239l108 551h359l-217 -1120h-361l33 164q-92 -97 -193 -145t-213 -48q-153 0 -237 81t-84 229zM526 1336l47 246h236l-47 -246h-236zM576 1877h172 l148 -162l231 162h178l-243 -264h-349zM921 1336l47 246h238l-49 -246h-236z" />
<glyph unicode="&#x1db;" horiz-adv-x="1663" d="M139 414q0 36 5 80.5t16 103.5l174 895h385l-174 -894q-10 -48 -14.5 -85t-4.5 -65q0 -98 52.5 -146.5t156.5 -48.5q140 0 215 78.5t111 265.5l174 895h385l-174 -895q-65 -330 -246.5 -478.5t-519.5 -148.5q-265 0 -403 113.5t-138 329.5zM654 1624l47 246h236l-47 -246 h-236zM700 2165h264l144 -264h-178zM1049 1624l47 246h238l-49 -246h-236z" />
<glyph unicode="&#x1dc;" horiz-adv-x="1458" d="M123 281q0 35 4 74t12 81l131 684h359l-113 -583q-12 -57 -18 -97t-6 -63q0 -63 35 -98t100 -35q111 0 191 86t110 239l108 551h359l-217 -1120h-361l33 164q-92 -97 -193 -145t-213 -48q-153 0 -237 81t-84 229zM526 1336l47 246h236l-47 -246h-236zM572 1877h264 l144 -264h-178zM921 1336l47 246h238l-49 -246h-236z" />
<glyph unicode="&#x1dd;" horiz-adv-x="1389" d="M87 555l20 102h837q12 126 -54 189t-206 63q-113 0 -238 -33q-125 -34 -263 -102l53 276q137 48 269 72q131 25 258 25q304 0 443 -155q138 -154 84 -433q-53 -274 -249 -431t-486 -157q-264 0 -392 159q-127 159 -76 425zM432 436q-20 -102 28 -164q47 -63 143 -63 q104 0 180 59q77 58 114 168h-465z" />
<glyph unicode="&#x1de;" horiz-adv-x="1585" d="M-133 0l844 1493h440l264 -1493h-366l-43 272h-596l-148 -272h-395zM555 543h401l-90 575zM646 1624l47 246h236l-47 -246h-236zM709 1942l37 188h631l-37 -188h-631zM1041 1624l47 246h238l-49 -246h-236z" />
<glyph unicode="&#x1df;" horiz-adv-x="1382" d="M35 276q0 214 165.5 327.5t477.5 113.5h211l4 28q3 14 3.5 20t0.5 11q0 66 -62.5 99.5t-185.5 33.5q-111 0 -215 -23t-201 -69l54 273q112 28 229.5 42.5t243.5 14.5q249 0 370 -85.5t121 -260.5q0 -34 -4.5 -74.5t-13.5 -87.5l-125 -639h-358l30 166 q-88 -100 -186 -147.5t-213 -47.5q-159 0 -252.5 82.5t-93.5 222.5zM403 340q0 -61 40.5 -96t111.5 -35q110 0 184 66.5t99 187.5l8 41h-172q-134 0 -202.5 -41.5t-68.5 -122.5zM491 1339l47 246h238l-49 -246h-236zM529 1683l37 188h631l-37 -188h-631zM887 1339l49 246 h235l-49 -246h-235z" />
<glyph unicode="&#x1e0;" horiz-adv-x="1585" d="M-133 0l844 1493h440l264 -1493h-366l-43 272h-596l-148 -272h-395zM555 543h401l-90 575zM712 1942l37 188h631l-37 -188h-631zM829 1624l47 246h275l-47 -246h-275z" />
<glyph unicode="&#x1e1;" horiz-adv-x="1382" d="M35 276q0 214 165.5 327.5t477.5 113.5h211l4 28q3 14 3.5 20t0.5 11q0 66 -62.5 99.5t-185.5 33.5q-111 0 -215 -23t-201 -69l54 273q112 28 229.5 42.5t243.5 14.5q249 0 370 -85.5t121 -260.5q0 -34 -4.5 -74.5t-13.5 -87.5l-125 -639h-358l30 166 q-88 -100 -186 -147.5t-213 -47.5q-159 0 -252.5 82.5t-93.5 222.5zM403 340q0 -61 40.5 -96t111.5 -35q110 0 184 66.5t99 187.5l8 41h-172q-134 0 -202.5 -41.5t-68.5 -122.5zM602 1617l37 188h631l-37 -188h-631zM719 1299l47 246h275l-47 -246h-275z" />
<glyph unicode="&#x1e2;" horiz-adv-x="2222" d="M-160 0l934 1493h1421l-57 -291h-653l-53 -278h614l-57 -291h-615l-65 -342h673l-55 -291h-1061l68 350h-492l-217 -350h-385zM610 627h377l119 610h-121zM1143 1683l37 188h631l-37 -188h-631z" />
<glyph unicode="&#x1e3;" horiz-adv-x="2146" d="M35 274q0 216 165.5 329.5t481.5 113.5h205l6 29q3 13 3.5 19t0.5 11q0 66 -62 99.5t-182 33.5q-114 0 -217.5 -23t-197.5 -69l53 273q117 28 228.5 42.5t215.5 14.5q149 0 247 -36.5t155 -113.5q95 77 201.5 113.5t236.5 36.5q223 0 356 -122t133 -323q0 -45 -5 -91 t-15 -93l-14 -57h-836q0 -6 -1 -17.5t-1 -17.5q0 -109 65.5 -163t196.5 -54q112 0 236.5 33.5t263.5 101.5l-53 -278q-131 -48 -261.5 -71.5t-265.5 -23.5q-173 0 -291 51.5t-184 155.5q-117 -105 -240.5 -156t-261.5 -51q-170 0 -266 81t-96 222zM403 340q0 -61 40.5 -96 t111.5 -35q110 0 184 66.5t99 187.5l8 41h-172q-134 0 -202.5 -41.5t-68.5 -122.5zM851 1365l37 188h631l-37 -188h-631zM1243 682h463q3 13 4.5 26.5t1.5 26.5q0 80 -48.5 127t-129.5 47q-105 0 -179.5 -58t-111.5 -169z" />
<glyph unicode="&#x1e4;" horiz-adv-x="1681" d="M74 573q0 181 57 339q57 159 170 290q138 160 325 239q188 79 429 79q134 0 270 -28t268 -83l-59 -309q-122 71 -238 106q-117 35 -235 35q-258 0 -420 -172t-162 -442q0 -179 95 -278q94 -99 266 -99q56 0 112 8q56 7 113 23l20 101h-116l13 87h120l20 102h-235l49 258 h598l-70 -360h123l-13 -87h-127l-52 -271q-146 -71 -303 -105q-157 -35 -336 -35q-318 0 -500 161q-182 162 -182 441z" />
<glyph unicode="&#x1e5;" horiz-adv-x="1466" d="M41 -377l53 279q85 -54 170 -80q85 -27 174 -27q173 0 268 72h-424l22 89h480q38 65 56 157l16 77q-86 -98 -175 -144t-194 -46q-190 0 -301 122q-110 123 -110 335q0 113 38 227q39 113 111 213q88 121 202 185q114 63 245 63q118 0 198 -46q81 -46 136 -145l30 166h361 l-189 -973q-20 -105 -57 -191h160l-22 -89h-183q-59 -98 -146 -165q-190 -144 -528 -144q-104 0 -200 16q-97 16 -191 49zM449 469q0 -102 47 -155q47 -54 137 -54q131 0 219 118q88 119 88 296q0 104 -47 158q-47 55 -137 55q-132 0 -220 -119q-87 -119 -87 -299z" />
<glyph unicode="&#x1e6;" horiz-adv-x="1681" d="M74 573q0 181 57 339.5t170 289.5q138 160 325.5 239t428.5 79q134 0 270 -28t268 -83l-59 -309q-122 71 -238.5 106t-234.5 35q-258 0 -420 -172t-162 -442q0 -179 94.5 -278t266.5 -99q56 0 112 7.5t113 23.5l57 290h-235l49 258h598l-139 -718q-146 -71 -303 -105.5 t-336 -34.5q-318 0 -500 161.5t-182 440.5zM771 1899h172l148 -162l231 162h178l-243 -264h-349z" />
<glyph unicode="&#x1e7;" horiz-adv-x="1466" d="M41 -377l53 279q85 -54 170 -80.5t174 -26.5q178 0 273.5 76t128.5 242l16 77q-86 -98 -175 -144t-194 -46q-190 0 -300.5 122.5t-110.5 334.5q0 113 38.5 226.5t110.5 213.5q88 121 202 184.5t245 63.5q118 0 198.5 -46t135.5 -145l30 166h361l-189 -973 q-58 -301 -248 -445t-528 -144q-104 0 -200.5 16t-190.5 49zM449 469q0 -102 47 -155.5t137 -53.5q131 0 219 118.5t88 295.5q0 104 -47 158.5t-137 54.5q-132 0 -219.5 -119t-87.5 -299zM551 1636h176l156 -227l244 227h196l-329 -376h-260z" />
<glyph unicode="&#x1e8;" horiz-adv-x="1587" d="M43 0l291 1493h385l-105 -537l635 537h465l-856 -725l645 -768h-452l-502 623l-121 -623h-385zM265 1897h172l148 -162l231 162h178l-243 -264h-349z" />
<glyph unicode="&#x1e9;" horiz-adv-x="1362" d="M63 0l302 1556h360l-164 -843l483 407h422l-651 -518l473 -602h-409l-363 483l-94 -483h-359zM277 1897h172l148 -162l231 162h178l-243 -264h-349z" />
<glyph unicode="&#x1ea;" horiz-adv-x="1741" d="M74 569q0 183 55 345t162 292q128 158 305.5 236t409.5 78q298 0 479.5 -165.5t181.5 -432.5q0 -182 -55.5 -344t-161.5 -291q-130 -159 -307.5 -237.5t-409.5 -78.5q-297 0 -478 165t-181 433zM479 612q0 -172 79 -267t220 -95q115 0 204.5 48.5t152.5 143.5 q60 91 92.5 205t32.5 234q0 176 -79.5 268t-230.5 92q-200 0 -335.5 -179.5t-135.5 -449.5zM497 -266q0 65 37 128t120 138h142q-71 -74 -97 -114t-26 -68q0 -34 24.5 -53t69.5 -19q37 0 78 8t84 23l-29 -152q-57 -13 -102 -19.5t-84 -6.5q-106 0 -161.5 34.5t-55.5 100.5z " />
<glyph unicode="&#x1eb;" horiz-adv-x="1407" d="M74 444q0 126 46 246.5t132 220.5q100 116 238.5 176t306.5 60q250 0 393 -127t143 -346q0 -127 -45 -246.5t-131 -218.5q-102 -118 -241 -178t-310 -60q-247 0 -389.5 127t-142.5 346zM368 -266q0 65 37 128t120 138h142q-71 -74 -97 -114t-26 -68q0 -34 24.5 -53 t69.5 -19q37 0 78 8t84 23l-29 -152q-57 -13 -102 -19.5t-84 -6.5q-106 0 -161.5 34.5t-55.5 100.5zM449 444q0 -106 48.5 -161.5t141.5 -55.5q139 0 229 126.5t90 322.5q0 105 -48.5 160t-141.5 55q-139 0 -229 -126t-90 -321z" />
<glyph unicode="&#x1ec;" horiz-adv-x="1741" d="M74 569q0 183 55 345t162 292q128 158 305.5 236t409.5 78q298 0 479.5 -165.5t181.5 -432.5q0 -182 -55.5 -344t-161.5 -291q-130 -159 -307.5 -237.5t-409.5 -78.5q-297 0 -478 165t-181 433zM479 612q0 -172 79 -267t220 -95q115 0 204.5 48.5t152.5 143.5 q60 91 92.5 205t32.5 234q0 176 -79.5 268t-230.5 92q-200 0 -335.5 -179.5t-135.5 -449.5zM497 -266q0 65 37 128t120 138h142q-71 -74 -97 -114t-26 -68q0 -34 24.5 -53t69.5 -19q37 0 78 8t84 23l-29 -152q-57 -13 -102 -19.5t-84 -6.5q-106 0 -161.5 34.5t-55.5 100.5z M675 1683l37 188h631l-37 -188h-631z" />
<glyph unicode="&#x1ed;" horiz-adv-x="1407" d="M74 444q0 126 46 246.5t132 220.5q100 116 238.5 176t306.5 60q250 0 393 -127t143 -346q0 -127 -45 -246.5t-131 -218.5q-102 -118 -241 -178t-310 -60q-247 0 -389.5 127t-142.5 346zM368 -266q0 65 37 128t120 138h142q-71 -74 -97 -114t-26 -68q0 -34 24.5 -53 t69.5 -19q37 0 78 8t84 23l-29 -152q-57 -13 -102 -19.5t-84 -6.5q-106 0 -161.5 34.5t-55.5 100.5zM449 444q0 -106 48.5 -161.5t141.5 -55.5q139 0 229 126.5t90 322.5q0 105 -48.5 160t-141.5 55q-139 0 -229 -126t-90 -321zM510 1374l37 188h631l-37 -188h-631z" />
<glyph unicode="&#x1ee;" horiz-adv-x="1582" d="M42 55l56 290q142 -74 289 -112t297 -38q157 0 249 53t111 152q20 102 -53 154q-74 53 -237 53h-187l48 245l373 350h-745l57 291h1222l-49 -250l-469 -434q131 -11 208 -32q120 -33 184 -145q58 -103 30 -246q-43 -222 -235 -338q-193 -115 -556 -115q-154 0 -304 30 q-149 31 -289 92zM596 1899h172l148 -162l231 162h178l-243 -264h-349z" />
<glyph unicode="&#x1ef;" horiz-adv-x="1192" d="M-90 -366l57 297q98 -54 199 -81q101 -28 204 -28q153 0 245 53t111 152q20 102 -53 155q-74 52 -237 52h-187l48 245l445 385h-565l50 256h977l-49 -250l-502 -434q160 -9 241 -32q120 -33 184 -146q58 -102 30 -245q-43 -222 -235 -337q-193 -116 -519 -116 q-115 0 -227 18q-111 19 -217 56zM422 1625h176l156 -227l244 227h196l-329 -376h-260z" />
<glyph unicode="&#x1f0;" horiz-adv-x="702" d="M-262 -442l45 235h63q101 0 148 45q46 46 72 182l215 1100h360l-215 -1100q-46 -235 -172 -348q-125 -114 -338 -114h-178zM182 1639h176l156 -227l244 227h196l-329 -376h-260z" />
<glyph unicode="&#x1f1;" horiz-adv-x="3170" d="M43 0l291 1493h405q290 0 435 -34.5t241 -115.5q97 -81 146 -196.5t49 -261.5q0 -203 -83.5 -382.5t-234.5 -301.5q-132 -109 -306.5 -155t-536.5 -46h-406zM485 291h138q269 0 426 151t157 408q0 174 -102.5 263t-304.5 89h-135zM1647 0l45 238l971 964h-760l57 291 h1256l-48 -238l-968 -964h805l-58 -291h-1300z" />
<glyph unicode="&#x1f2;" horiz-adv-x="2970" d="M43 0l291 1493h405q290 0 435 -34.5t241 -115.5q97 -81 146 -196.5t49 -261.5q0 -203 -83.5 -382.5t-234.5 -301.5q-132 -109 -306.5 -155t-536.5 -46h-406zM485 291h138q269 0 426 151t157 408q0 174 -102.5 263t-304.5 89h-135zM1682 0l47 250l700 614h-555l49 256h977 l-49 -250l-698 -614h579l-49 -256h-1001z" />
<glyph unicode="&#x1f3;" horiz-adv-x="2676" d="M74 418q0 129 38.5 251t110.5 222q91 126 205.5 191t245.5 65q115 0 195.5 -46.5t136.5 -144.5l116 600h361l-303 -1556h-361l33 162q-82 -98 -172 -144.5t-197 -46.5q-189 0 -299 120t-110 327zM444 440q0 -102 47.5 -155.5t137.5 -53.5q138 0 224.5 127t86.5 332 q0 93 -48.5 145t-135.5 52q-136 0 -224 -125.5t-88 -321.5zM1448 0l47 250l700 614h-555l49 256h977l-49 -250l-698 -614h579l-49 -256h-1001z" />
<glyph unicode="&#x1f4;" horiz-adv-x="1681" d="M74 573q0 181 57 339.5t170 289.5q138 160 325.5 239t428.5 79q134 0 270 -28t268 -83l-59 -309q-122 71 -238.5 106t-234.5 35q-258 0 -420 -172t-162 -442q0 -179 94.5 -278t266.5 -99q56 0 112 7.5t113 23.5l57 290h-235l49 258h598l-139 -718q-146 -71 -303 -105.5 t-336 -34.5q-318 0 -500 161.5t-182 440.5zM780 1636l246 264h280l-319 -264h-207z" />
<glyph unicode="&#x1f5;" horiz-adv-x="1466" d="M41 -377l53 279q85 -54 170 -80.5t174 -26.5q178 0 273.5 76t128.5 242l16 77q-86 -98 -175 -144t-194 -46q-190 0 -300.5 122.5t-110.5 334.5q0 113 38.5 226.5t110.5 213.5q88 121 202 184.5t245 63.5q118 0 198.5 -46t135.5 -145l30 166h361l-189 -973 q-58 -301 -248 -445t-528 -144q-104 0 -200.5 16t-190.5 49zM449 469q0 -102 47 -155.5t137 -53.5q131 0 219 118.5t88 295.5q0 104 -47 158.5t-137 54.5q-132 0 -219.5 -119t-87.5 -299zM623 1259l346 376h293l-438 -376h-201z" />
<glyph unicode="&#x1f6;" horiz-adv-x="2639" d="M46 0l290 1493h385l-111 -569h568l111 569h385l-174 -895q-36 -185 9 -264q45 -80 182 -80q138 0 214 80q76 79 112 264l101 522h385l-101 -522q-62 -317 -251 -472t-515 -155q-324 -1 -454 155q-129 155 -67 472l7 35h-568l-123 -633h-385z" />
<glyph unicode="&#x1f7;" horiz-adv-x="1612" d="M-41 -426l373 1919h394l-36 -185q114 118 222 163q118 49 337 49q222 0 286 -124q52 -101 52 -207q0 -42 -9 -85q-89 -462 -1120 -991l-105 -539h-394zM517 417q592 368 627 548q8 41 8 76q0 72 -32 121q-47 72 -186 72q-97 0 -302 -224z" />
<glyph unicode="&#x1f8;" horiz-adv-x="1714" d="M43 0l291 1493h430l342 -1034l201 1034h364l-291 -1493h-430l-342 1034l-200 -1034h-365zM823 1899h264l144 -264h-178z" />
<glyph unicode="&#x1f9;" horiz-adv-x="1458" d="M63 0l218 1120h360l-33 -164q99 97 199 144t209 47q155 0 239 -81t84 -228q0 -32 -4.5 -71t-13.5 -85l-133 -682h-359l113 584q12 57 18.5 96.5t6.5 62.5q0 64 -35.5 99t-100.5 35q-111 0 -190.5 -86.5t-110.5 -239.5l-108 -551h-359zM590 1635h283l209 -376h-197z" />
<glyph unicode="&#x1fa;" horiz-adv-x="1585" d="M-133 0l825 1458q-26 37 -38.5 75.5t-12.5 82.5q0 117 83.5 201t201.5 84q117 0 200.5 -84t83.5 -201q0 -48 -13 -86.5t-42 -73.5l260 -1456h-366l-43 272h-596l-148 -272h-395zM555 543h401l-90 575zM795 1616q0 -54 38.5 -92.5t92.5 -38.5t92.5 38.5t38.5 92.5 t-39 92.5t-92 38.5q-54 0 -92.5 -38.5t-38.5 -92.5zM1249 1755l246 264h280l-319 -264h-207z" />
<glyph unicode="&#x1fb;" horiz-adv-x="1382" d="M35 276q0 214 165.5 327.5t477.5 113.5h211l4 28q3 14 3.5 20t0.5 11q0 66 -62.5 99.5t-185.5 33.5q-111 0 -215 -23t-201 -69l54 273q112 28 229.5 42.5t243.5 14.5q249 0 370 -85.5t121 -260.5q0 -34 -4.5 -74.5t-13.5 -87.5l-125 -639h-358l30 166 q-88 -100 -186 -147.5t-213 -47.5q-159 0 -252.5 82.5t-93.5 222.5zM403 340q0 -61 40.5 -96t111.5 -35q110 0 184 66.5t99 187.5l8 41h-172q-134 0 -202.5 -41.5t-68.5 -122.5zM557 1524q0 120 82.5 202t202.5 82q119 0 201.5 -82t82.5 -202t-82.5 -202.5t-201.5 -82.5 q-120 0 -202.5 82.5t-82.5 202.5zM692 1524q0 -65 42.5 -107.5t107.5 -42.5t107 42t42 108q0 65 -42 107t-107 42q-66 0 -108 -42t-42 -107zM1141 1643l246 264h280l-319 -264h-207z" />
<glyph unicode="&#x1fc;" horiz-adv-x="2222" d="M-160 0l934 1493h1421l-57 -291h-653l-53 -278h614l-57 -291h-615l-65 -342h673l-55 -291h-1061l68 350h-492l-217 -350h-385zM610 627h377l119 610h-121zM1200 1636l246 264h280l-319 -264h-207z" />
<glyph unicode="&#x1fd;" horiz-adv-x="2146" d="M35 274q0 216 165.5 329.5t481.5 113.5h205l6 29q3 13 3.5 19t0.5 11q0 66 -62 99.5t-182 33.5q-114 0 -217.5 -23t-197.5 -69l53 273q117 28 228.5 42.5t215.5 14.5q149 0 247 -36.5t155 -113.5q95 77 201.5 113.5t236.5 36.5q223 0 356 -122t133 -323q0 -45 -5 -91 t-15 -93l-14 -57h-836q0 -6 -1 -17.5t-1 -17.5q0 -109 65.5 -163t196.5 -54q112 0 236.5 33.5t263.5 101.5l-53 -278q-131 -48 -261.5 -71.5t-265.5 -23.5q-173 0 -291 51.5t-184 155.5q-117 -105 -240.5 -156t-261.5 -51q-170 0 -266 81t-96 222zM403 340q0 -61 40.5 -96 t111.5 -35q110 0 184 66.5t99 187.5l8 41h-172q-134 0 -202.5 -41.5t-68.5 -122.5zM926 1260l346 376h293l-438 -376h-201zM1243 682h463q3 13 4.5 26.5t1.5 26.5q0 80 -48.5 127t-129.5 47q-105 0 -179.5 -58t-111.5 -169z" />
<glyph unicode="&#x1fe;" horiz-adv-x="1741" d="M-96 45l254 213q-42 74 -63 152.5t-21 158.5q0 183 55 345t162 292q129 159 305.5 236.5t409.5 77.5q148 0 264.5 -39t204.5 -117l258 215l102 -123l-258 -213q45 -76 67.5 -157t22.5 -166q0 -182 -55.5 -344t-161.5 -291q-130 -158 -308 -236t-409 -78q-147 0 -265 41 t-210 123l-252 -213zM481 612q0 -22 4 -74v-6l711 596q-40 57 -101 85t-143 28q-202 0 -336.5 -178.5t-134.5 -450.5zM539 371q39 -59 100 -90t139 -31q115 0 204.5 48.5t152.5 143.5q60 92 93.5 206.5t33.5 230.5q0 25 -7 78q-1 8 -2 12zM822 1636l246 264h280l-319 -264 h-207z" />
<glyph unicode="&#x1ff;" horiz-adv-x="1407" d="M-35 10l187 164q-39 59 -58.5 127.5t-19.5 144.5q0 126 45.5 245.5t132.5 219.5q100 117 238.5 176.5t310.5 59.5q104 0 190 -23t154 -69l192 168l97 -111l-183 -162q41 -59 61.5 -128t20.5 -148q0 -127 -45 -246.5t-131 -218.5q-101 -116 -241.5 -177t-309.5 -61 q-109 0 -196.5 24.5t-155.5 74.5l-193 -172zM449 438l456 404q-23 24 -57.5 36.5t-79.5 12.5q-140 0 -224.5 -119.5t-94.5 -333.5zM498 283q25 -28 59.5 -42t81.5 -14q141 0 226.5 124t92.5 341zM582 1263l346 376h293l-438 -376h-201z" />
<glyph unicode="&#x200;" horiz-adv-x="1585" d="M-133 0l844 1493h440l264 -1493h-366l-43 272h-596l-148 -272h-395zM555 543h401l-90 575zM585 1904h264l144 -264h-178zM941 1904h264l144 -264h-178z" />
<glyph unicode="&#x201;" horiz-adv-x="1382" d="M35 276q0 214 165.5 327.5t477.5 113.5h211l4 28q3 14 3.5 20t0.5 11q0 66 -62.5 99.5t-185.5 33.5q-111 0 -215 -23t-201 -69l54 273q112 28 229.5 42.5t243.5 14.5q249 0 370 -85.5t121 -260.5q0 -34 -4.5 -74.5t-13.5 -87.5l-125 -639h-358l30 166 q-88 -100 -186 -147.5t-213 -47.5q-159 0 -252.5 82.5t-93.5 222.5zM403 340q0 -61 40.5 -96t111.5 -35q110 0 184 66.5t99 187.5l8 41h-172q-134 0 -202.5 -41.5t-68.5 -122.5zM415 1638h231l142 -376h-174zM792 1638h217l121 -376h-163z" />
<glyph unicode="&#x202;" horiz-adv-x="1585" d="M-133 0l844 1493h440l264 -1493h-366l-43 272h-596l-148 -272h-395zM555 543h401l-90 575zM675 1675q39 129 138 196.5t247 67.5q136 0 209 -67.5t73 -192.5v-4h-143q-10 60 -50.5 87.5t-119.5 27.5q-72 0 -125 -30.5t-76 -84.5h-153z" />
<glyph unicode="&#x203;" horiz-adv-x="1382" d="M35 276q0 214 165.5 327.5t477.5 113.5h211l4 28q3 14 3.5 20t0.5 11q0 66 -62.5 99.5t-185.5 33.5q-111 0 -215 -23t-201 -69l54 273q112 28 229.5 42.5t243.5 14.5q249 0 370 -85.5t121 -260.5q0 -34 -4.5 -74.5t-13.5 -87.5l-125 -639h-358l30 166 q-88 -100 -186 -147.5t-213 -47.5q-159 0 -252.5 82.5t-93.5 222.5zM403 340q0 -61 40.5 -96t111.5 -35q110 0 184 66.5t99 187.5l8 41h-172q-134 0 -202.5 -41.5t-68.5 -122.5zM472 1309q34 143 136.5 220t258.5 77q140 0 210.5 -62t70.5 -183q0 -21 -0.5 -31.5t-2.5 -20.5 h-142v9q0 65 -43 100t-123 35q-81 0 -133 -35.5t-80 -108.5h-152z" />
<glyph unicode="&#x204;" horiz-adv-x="1399" d="M43 0l291 1493h1038l-57 -291h-653l-54 -278h615l-58 -291h-614l-66 -342h674l-55 -291h-1061zM501 1904h264l144 -264h-178zM857 1904h264l144 -264h-178z" />
<glyph unicode="&#x205;" horiz-adv-x="1389" d="M74 434q0 128 45.5 248.5t132.5 220.5q103 120 246.5 182t318.5 62q227 0 360.5 -121t133.5 -326q0 -40 -5.5 -84.5t-17.5 -97.5l-12 -57h-838q0 -6 -1 -17.5t-1 -17.5q0 -109 65.5 -163t196.5 -54q113 0 238.5 34t263.5 101l-55 -278q-131 -48 -260.5 -71.5 t-263.5 -23.5q-262 0 -404.5 121t-142.5 342zM462 1638h231l142 -376h-174zM487 682h463q3 13 4.5 26.5t1.5 26.5q0 80 -48 127t-130 47q-105 0 -178.5 -57.5t-112.5 -169.5zM839 1638h217l121 -376h-163z" />
<glyph unicode="&#x206;" horiz-adv-x="1399" d="M43 0l291 1493h1038l-57 -291h-653l-54 -278h615l-58 -291h-614l-66 -342h674l-55 -291h-1061zM591 1675q39 129 138 196.5t247 67.5q136 0 209 -67.5t73 -192.5v-4h-143q-10 60 -50.5 87.5t-119.5 27.5q-72 0 -125 -30.5t-76 -84.5h-153z" />
<glyph unicode="&#x207;" horiz-adv-x="1389" d="M74 434q0 128 45.5 248.5t132.5 220.5q103 120 246.5 182t318.5 62q227 0 360.5 -121t133.5 -326q0 -40 -5.5 -84.5t-17.5 -97.5l-12 -57h-838q0 -6 -1 -17.5t-1 -17.5q0 -109 65.5 -163t196.5 -54q113 0 238.5 34t263.5 101l-55 -278q-131 -48 -260.5 -71.5 t-263.5 -23.5q-262 0 -404.5 121t-142.5 342zM487 682h463q3 13 4.5 26.5t1.5 26.5q0 80 -48 127t-130 47q-105 0 -178.5 -57.5t-112.5 -169.5zM519 1309q34 143 136.5 220t258.5 77q140 0 210.5 -62t70.5 -183q0 -21 -0.5 -31.5t-2.5 -20.5h-142v9q0 65 -43 100t-123 35 q-81 0 -133 -35.5t-80 -108.5h-152z" />
<glyph unicode="&#x208;" horiz-adv-x="762" d="M43 0l291 1493h385l-291 -1493h-385zM130 1904h264l144 -264h-178zM486 1904h264l144 -264h-178z" />
<glyph unicode="&#x209;" horiz-adv-x="702" d="M63 0l218 1120h360l-219 -1120h-359zM123 1636h231l142 -376h-174zM500 1636h217l121 -376h-163z" />
<glyph unicode="&#x20a;" horiz-adv-x="762" d="M43 0l291 1493h385l-291 -1493h-385zM248 1675q39 129 138 196.5t247 67.5q136 0 209 -67.5t73 -192.5v-4h-143q-10 60 -50.5 87.5t-119.5 27.5q-72 0 -125 -30.5t-76 -84.5h-153z" />
<glyph unicode="&#x20b;" horiz-adv-x="702" d="M63 0l218 1120h360l-219 -1120h-359zM179 1309q34 143 136.5 220t258.5 77q140 0 210.5 -62t70.5 -183q0 -21 -0.5 -31.5t-2.5 -20.5h-142v9q0 65 -43 100t-123 35q-81 0 -133 -35.5t-80 -108.5h-152z" />
<glyph unicode="&#x20c;" horiz-adv-x="1741" d="M74 569q0 183 55 345t162 292q128 158 305.5 236t409.5 78q298 0 479.5 -165.5t181.5 -432.5q0 -182 -55.5 -344t-161.5 -291q-130 -159 -307.5 -237.5t-409.5 -78.5q-297 0 -478 165t-181 433zM479 612q0 -172 79 -267t220 -95q115 0 204.5 48.5t152.5 143.5 q60 91 92.5 205t32.5 234q0 176 -79.5 268t-230.5 92q-200 0 -335.5 -179.5t-135.5 -449.5zM697 1904h264l144 -264h-178zM1053 1904h264l144 -264h-178z" />
<glyph unicode="&#x20d;" horiz-adv-x="1407" d="M74 444q0 126 46 246.5t132 220.5q100 116 238.5 176t306.5 60q250 0 393 -127t143 -346q0 -127 -45 -246.5t-131 -218.5q-102 -118 -241 -178t-310 -60q-247 0 -389.5 127t-142.5 346zM428 1638h231l142 -376h-174zM449 444q0 -106 48.5 -161.5t141.5 -55.5 q139 0 229 126.5t90 322.5q0 105 -48.5 160t-141.5 55q-139 0 -229 -126t-90 -321zM805 1638h217l121 -376h-163z" />
<glyph unicode="&#x20e;" horiz-adv-x="1741" d="M74 569q0 183 55 345t162 292q128 158 305.5 236t409.5 78q298 0 479.5 -165.5t181.5 -432.5q0 -182 -55.5 -344t-161.5 -291q-130 -159 -307.5 -237.5t-409.5 -78.5q-297 0 -478 165t-181 433zM479 612q0 -172 79 -267t220 -95q115 0 204.5 48.5t152.5 143.5 q60 91 92.5 205t32.5 234q0 176 -79.5 268t-230.5 92q-200 0 -335.5 -179.5t-135.5 -449.5zM780 1675q39 129 138 196.5t247 67.5q136 0 209 -67.5t73 -192.5v-4h-143q-10 60 -50.5 87.5t-119.5 27.5q-72 0 -125 -30.5t-76 -84.5h-153z" />
<glyph unicode="&#x20f;" horiz-adv-x="1407" d="M74 444q0 126 46 246.5t132 220.5q100 116 238.5 176t306.5 60q250 0 393 -127t143 -346q0 -127 -45 -246.5t-131 -218.5q-102 -118 -241 -178t-310 -60q-247 0 -389.5 127t-142.5 346zM449 444q0 -106 48.5 -161.5t141.5 -55.5q139 0 229 126.5t90 322.5 q0 105 -48.5 160t-141.5 55q-139 0 -229 -126t-90 -321zM485 1309q34 143 136.5 220t258.5 77q140 0 210.5 -62t70.5 -183q0 -21 -0.5 -31.5t-2.5 -20.5h-142v9q0 65 -43 100t-123 35q-81 0 -133 -35.5t-80 -108.5h-152z" />
<glyph unicode="&#x210;" horiz-adv-x="1577" d="M43 0l291 1493h569q246 0 373 -92t127 -271q0 -181 -100 -298t-271 -134q78 -16 130 -79.5t91 -194.5l127 -424h-383l-112 371q-34 111 -82.5 152.5t-140.5 41.5h-123l-111 -565h-385zM473 1904h264l144 -264h-178zM590 831h162q131 0 198.5 61t67.5 179 q0 74 -46.5 108.5t-146.5 34.5h-159zM829 1904h264l144 -264h-178z" />
<glyph unicode="&#x211;" horiz-adv-x="1010" d="M63 0l218 1120h360l-39 -192q71 106 177.5 162.5t236.5 56.5q19 0 43 -2t57 -6l-63 -324q-37 21 -82 32t-97 11q-137 0 -227.5 -88t-122.5 -254l-102 -516h-359zM374 1638h231l142 -376h-174zM751 1638h217l121 -376h-163z" />
<glyph unicode="&#x212;" horiz-adv-x="1577" d="M43 0l291 1493h569q246 0 373 -92t127 -271q0 -181 -100 -298t-271 -134q78 -16 130 -79.5t91 -194.5l127 -424h-383l-112 371q-34 111 -82.5 152.5t-140.5 41.5h-123l-111 -565h-385zM570 1675q39 129 138 196.5t247 67.5q136 0 209 -67.5t73 -192.5v-4h-143 q-10 60 -50.5 87.5t-119.5 27.5q-72 0 -125 -30.5t-76 -84.5h-153zM590 831h162q131 0 198.5 61t67.5 179q0 74 -46.5 108.5t-146.5 34.5h-159z" />
<glyph unicode="&#x213;" horiz-adv-x="1010" d="M63 0l218 1120h360l-39 -192q71 106 177.5 162.5t236.5 56.5q19 0 43 -2t57 -6l-63 -324q-37 21 -82 32t-97 11q-137 0 -227.5 -88t-122.5 -254l-102 -516h-359zM431 1309q34 143 136.5 220t258.5 77q140 0 210.5 -62t70.5 -183q0 -21 -0.5 -31.5t-2.5 -20.5h-142v9 q0 65 -43 100t-123 35q-81 0 -133 -35.5t-80 -108.5h-152z" />
<glyph unicode="&#x214;" horiz-adv-x="1663" d="M139 414q0 36 5 80.5t16 103.5l174 895h385l-174 -894q-10 -48 -14.5 -85t-4.5 -65q0 -98 52.5 -146.5t156.5 -48.5q140 0 215 78.5t111 265.5l174 895h385l-174 -895q-65 -330 -246.5 -478.5t-519.5 -148.5q-265 0 -403 113.5t-138 329.5zM585 1904h264l144 -264h-178z M941 1904h264l144 -264h-178z" />
<glyph unicode="&#x215;" horiz-adv-x="1458" d="M123 281q0 35 4 74t12 81l131 684h359l-113 -583q-12 -57 -18 -97t-6 -63q0 -63 35 -98t100 -35q111 0 191 86t110 239l108 551h359l-217 -1120h-361l33 164q-92 -97 -193 -145t-213 -48q-153 0 -237 81t-84 229zM452 1638h231l142 -376h-174zM829 1638h217l121 -376 h-163z" />
<glyph unicode="&#x216;" horiz-adv-x="1663" d="M139 414q0 36 5 80.5t16 103.5l174 895h385l-174 -894q-10 -48 -14.5 -85t-4.5 -65q0 -98 52.5 -146.5t156.5 -48.5q140 0 215 78.5t111 265.5l174 895h385l-174 -895q-65 -330 -246.5 -478.5t-519.5 -148.5q-265 0 -403 113.5t-138 329.5zM675 1675q39 129 138 196.5 t247 67.5q136 0 209 -67.5t73 -192.5v-4h-143q-10 60 -50.5 87.5t-119.5 27.5q-72 0 -125 -30.5t-76 -84.5h-153z" />
<glyph unicode="&#x217;" horiz-adv-x="1458" d="M123 281q0 35 4 74t12 81l131 684h359l-113 -583q-12 -57 -18 -97t-6 -63q0 -63 35 -98t100 -35q111 0 191 86t110 239l108 551h359l-217 -1120h-361l33 164q-92 -97 -193 -145t-213 -48q-153 0 -237 81t-84 229zM509 1309q34 143 136.5 220t258.5 77q140 0 210.5 -62 t70.5 -183q0 -21 -0.5 -31.5t-2.5 -20.5h-142v9q0 65 -43 100t-123 35q-81 0 -133 -35.5t-80 -108.5h-152z" />
<glyph unicode="&#x218;" horiz-adv-x="1475" d="M31 78l61 325q133 -77 258.5 -115t247.5 -38q132 0 214.5 54t82.5 138q0 55 -37 85.5t-162 62.5l-157 39q-174 43 -259 136t-85 241q0 233 178.5 373.5t480.5 140.5q121 0 248.5 -18.5t259.5 -55.5l-62 -316q-113 56 -223 83.5t-215 27.5q-144 0 -224.5 -45t-80.5 -125 q0 -51 35.5 -79.5t146.5 -55.5l158 -39q198 -50 290.5 -144.5t92.5 -244.5q0 -243 -184.5 -390t-495.5 -147q-145 0 -288.5 27t-280.5 80zM279 -484l148 298h324l-280 -298h-192z" />
<glyph unicode="&#x219;" horiz-adv-x="1219" d="M20 43l54 281q97 -57 207.5 -86t226.5 -29q113 0 170 27t57 79q0 36 -32 56t-132 41l-65 12q-192 40 -274 118t-82 216q0 187 141.5 288t404.5 101q115 0 226.5 -15.5t224.5 -46.5l-53 -278q-105 50 -209 76t-197 26q-106 0 -163.5 -27.5t-57.5 -78.5q0 -30 32 -48 t126 -38l65 -12q217 -46 304 -118.5t87 -201.5q0 -195 -153 -304.5t-428 -109.5q-115 0 -235 18t-245 54zM133 -484l148 298h324l-280 -298h-192z" />
<glyph unicode="&#x21a;" horiz-adv-x="1397" d="M98 1202l58 291h1376l-57 -291h-496l-234 -1202h-385l234 1202h-496zM186 -484l148 298h324l-280 -298h-192z" />
<glyph unicode="&#x21b;" horiz-adv-x="979" d="M88 864l49 256h178l62 318h360l-61 -318h366l-51 -256h-366l-92 -474q-4 -16 -5.5 -27t-1.5 -21q0 -46 30.5 -66t102.5 -20h185l-51 -256h-301q-162 0 -247 68t-85 196q0 28 3 60t9 65l92 475h-176zM91 -484l148 298h324l-280 -298h-192z" />
<glyph unicode="&#x21c;" horiz-adv-x="1414" d="M-93 -430l60 283q13 3 34.5 8t77.5 20t111.5 32t128 44t136 55.5t127 66.5t108.5 77.5t73.5 88t28.5 97.5q0 51 -27.5 87.5t-67 52.5t-84.5 16q-57 0 -125 -25l-235 -85l54 254l255 95q90 34 159 75.5t108.5 79.5t64 80t32 73t7.5 61q0 42 -20.5 73t-54.5 47t-69 23 t-71 7q-149 0 -422 -156l54 256q275 164 510 164q104 0 187 -22t135 -57t86.5 -82t48 -93.5t13.5 -95.5q0 -34 -8.5 -75.5t-34.5 -99t-66.5 -111.5t-111 -111t-161.5 -99q121 -31 184.5 -111.5t63.5 -183.5q0 -34 -7 -68q-22 -104 -84.5 -191t-162.5 -160t-253.5 -140.5 t-340.5 -126.5t-441 -123z" />
<glyph unicode="&#x21d;" horiz-adv-x="1244" d="M-97 -433l49 229q25 5 57 12.5t93.5 23t120 34.5t127.5 44t126.5 56t106 65t75.5 75t27 83q0 61 -49 95.5t-115 34.5q-52 0 -112 -20l-209 -69l44 206l227 77q82 28 144 62.5t96 65t54.5 64t26.5 57t6 46.5q0 35 -19.5 61t-51 39t-63 19t-63.5 6q-140 0 -376 -126l44 207 q232 133 480 133q89 0 160 -16t116 -42t75 -62.5t42.5 -74.5t12.5 -81q0 -121 -93 -233t-242 -177q66 -18 113 -46t71 -61.5t34.5 -65.5t10.5 -67q0 -27 -6 -54q-86 -408 -1140 -600z" />
<glyph unicode="&#x21e;" horiz-adv-x="1714" d="M43 0l291 1493h385l-111 -569h568l110 569h385l-291 -1493h-385l123 633h-567l-123 -633h-385zM746 1897h172l148 -162l231 162h178l-243 -264h-349z" />
<glyph unicode="&#x21f;" horiz-adv-x="1458" d="M63 0l302 1556h360l-117 -600q99 97 199 144t209 47q155 0 239 -81t84 -228q0 -32 -4.5 -71t-13.5 -85l-133 -682h-359l113 584q12 57 18.5 96.5t6.5 62.5q0 64 -35.5 99t-100.5 35q-111 0 -190.5 -86.5t-110.5 -239.5l-108 -551h-359zM277 1897h172l148 -162l231 162 h178l-243 -264h-349z" />
<glyph unicode="&#x220;" horiz-adv-x="1714" d="M66 0l290 1493h371l-44 -227q138 135 263 193q131 61 275 61q227 0 315 -158t29 -459l-258 -1329h-361l217 1117q35 182 41 265q5 73 -13 108q-24 46 -74 72q-52 26 -122 26q-157 0 -269 -115q-111 -115 -150 -317l-142 -730h-368z" />
<glyph unicode="&#x221;" horiz-adv-x="1771" d="M64 559q51 259 216 423q165 165 372 165q116 0 196 -47q81 -46 136 -144l116 600h360l-202 -1042q94 92 200 92q94 0 134 -56q50 -69 18 -223q-31 -160 -114 -247q-97 -105 -263 -106q-91 0 -157 26q-51 -74 -96 -154l-150 72q30 55 98 168q-13 14 -21 32 q-59 -68 -135 -103q-97 -44 -349 -44q-207 0 -308 165q-101 164 -51 423zM435 559q-31 -160 14 -244q44 -84 158 -84q115 0 192 84q76 84 107 244t-12 244q-45 84 -160 84q-114 0 -190 -84q-78 -84 -109 -244zM1255 246q18 -16 45 -16q134 0 150 89q5 25 -22 25 q-75 0 -127 -51z" />
<glyph unicode="&#x222;" horiz-adv-x="1657" d="M51 329q0 43 9 91q28 144 140 238q111 95 301 137q-162 30 -223 116q-53 74 -53 141q0 16 3 31q21 108 210 208q129 69 446 78l-30 -154q-112 2 -173 -35q-93 -56 -104 -116q-2 -11 -2 -21q0 -55 61 -96q57 -38 225 -38q133 0 241 58q90 48 113 167q5 24 5 45 q0 73 -55 111q-70 48 -160 56l34 173q280 -8 416 -97q120 -79 120 -217q0 -34 -7 -72q-25 -127 -124 -212q-101 -85 -272 -126q174 -42 249 -137q54 -68 54 -163q0 -36 -8 -75q-43 -222 -242 -336q-199 -113 -547 -113q-349 0 -505 113q-122 89 -122 245zM429 395 q0 -78 60 -123q75 -59 236 -59q162 0 259 59q96 58 117 168q5 25 5 48q0 76 -57 122q-73 58 -235 58q-161 0 -260 -59t-121 -169q-4 -24 -4 -45z" />
<glyph unicode="&#x223;" horiz-adv-x="1349" d="M45 314q0 50 11 106q28 144 123 238q96 95 257 137q-128 41 -181 126q-36 58 -36 135q0 36 8 77q22 111 85 190l334 -105q-47 -47 -62 -124q-5 -27 -5 -49q0 -54 28 -88q40 -48 132 -48q90 0 148 48t76 137q5 26 5 49q0 44 -19 75l375 105q20 -48 20 -107q0 -39 -9 -83 q-24 -126 -111 -212q-85 -85 -229 -126q142 -41 202 -137q41 -64 41 -151q0 -41 -9 -87q-43 -222 -214 -336q-169 -113 -459 -113q-291 0 -417 113q-94 85 -94 230zM417 376q0 -64 32 -104q46 -59 154 -59q107 0 176 59q68 58 90 168q7 36 7 66q0 64 -31 104q-46 58 -153 58 q-108 0 -178 -59q-69 -59 -90 -169q-7 -35 -7 -64z" />
<glyph unicode="&#x224;" horiz-adv-x="1485" d="M-10 0l45 233l989 969h-778l57 291h1255l-45 -233l-990 -969h824l-56 -291q-59 -268 -244 -377q-112 -65 -265 -65h-281l46 235h166q102 0 149 46q43 43 69 161h-941z" />
<glyph unicode="&#x225;" horiz-adv-x="1192" d="M26 0l49 250l709 614h-565l50 256h977l-49 -250l-709 -614h590l-50 -256q-58 -268 -244 -377q-112 -65 -265 -65h-281l46 235h166q102 0 149 46q43 43 69 161h-642z" />
<glyph unicode="&#x226;" horiz-adv-x="1585" d="M-133 0l844 1493h440l264 -1493h-366l-43 272h-596l-148 -272h-395zM555 543h401l-90 575zM803 1653l47 246h275l-47 -246h-275z" />
<glyph unicode="&#x227;" horiz-adv-x="1382" d="M35 276q0 214 165.5 327.5t477.5 113.5h211l4 28q3 14 3.5 20t0.5 11q0 66 -62.5 99.5t-185.5 33.5q-111 0 -215 -23t-201 -69l54 273q112 28 229.5 42.5t243.5 14.5q249 0 370 -85.5t121 -260.5q0 -34 -4.5 -74.5t-13.5 -87.5l-125 -639h-358l30 166 q-88 -100 -186 -147.5t-213 -47.5q-159 0 -252.5 82.5t-93.5 222.5zM403 340q0 -61 40.5 -96t111.5 -35q110 0 184 66.5t99 187.5l8 41h-172q-134 0 -202.5 -41.5t-68.5 -122.5zM624 1263l56 292h358l-56 -292h-358z" />
<glyph unicode="&#x228;" horiz-adv-x="1399" d="M43 0l291 1493h1038l-57 -291h-653l-54 -278h615l-58 -291h-614l-66 -342h674l-55 -291h-1061zM237 -367l29 156q40 -17 80.5 -26t78.5 -9q66 0 104 28.5t38 75.5q0 26 -13.5 60.5t-44.5 89.5h142q37 -52 54 -96t17 -86q0 -104 -75.5 -161.5t-212.5 -57.5 q-49 0 -97.5 6.5t-99.5 19.5z" />
<glyph unicode="&#x229;" horiz-adv-x="1389" d="M74 434q0 128 45.5 248.5t132.5 220.5q103 120 246.5 182t318.5 62q227 0 360.5 -121t133.5 -326q0 -40 -5.5 -84.5t-17.5 -97.5l-12 -57h-838q0 -6 -1 -17.5t-1 -17.5q0 -109 65.5 -163t196.5 -54q113 0 238.5 34t263.5 101l-55 -278q-131 -48 -260.5 -71.5 t-263.5 -23.5q-262 0 -404.5 121t-142.5 342zM232 -375l29 156q40 -17 80.5 -26t78.5 -9q66 0 104 28.5t38 75.5q0 26 -13.5 60.5t-44.5 89.5h142q37 -52 54 -96t17 -86q0 -104 -75.5 -161.5t-212.5 -57.5q-49 0 -97.5 6.5t-99.5 19.5zM487 682h463q3 13 4.5 26.5t1.5 26.5 q0 80 -48 127t-130 47q-105 0 -178.5 -57.5t-112.5 -169.5z" />
<glyph unicode="&#x22a;" horiz-adv-x="1741" d="M74 569q0 183 55 345t162 292q128 158 305.5 236t409.5 78q298 0 479.5 -165.5t181.5 -432.5q0 -182 -55.5 -344t-161.5 -291q-130 -159 -307.5 -237.5t-409.5 -78.5q-297 0 -478 165t-181 433zM479 612q0 -172 79 -267t220 -95q115 0 204.5 48.5t152.5 143.5 q60 91 92.5 205t32.5 234q0 176 -79.5 268t-230.5 92q-200 0 -335.5 -179.5t-135.5 -449.5zM748 1624l47 246h236l-47 -246h-236zM811 1942l37 188h631l-37 -188h-631zM1143 1624l47 246h238l-49 -246h-236z" />
<glyph unicode="&#x22b;" horiz-adv-x="1407" d="M74 444q0 126 46 246.5t132 220.5q100 116 238.5 176t306.5 60q250 0 393 -127t143 -346q0 -127 -45 -246.5t-131 -218.5q-102 -118 -241 -178t-310 -60q-247 0 -389.5 127t-142.5 346zM449 444q0 -106 48.5 -161.5t141.5 -55.5q139 0 229 126.5t90 322.5 q0 105 -48.5 160t-141.5 55q-139 0 -229 -126t-90 -321zM504 1339l47 246h238l-49 -246h-236zM558 1683l37 188h631l-37 -188h-631zM900 1339l49 246h235l-49 -246h-235z" />
<glyph unicode="&#x22c;" horiz-adv-x="1741" d="M74 569q0 183 55 345t162 292q128 158 305.5 236t409.5 78q298 0 479.5 -165.5t181.5 -432.5q0 -182 -55.5 -344t-161.5 -291q-130 -159 -307.5 -237.5t-409.5 -78.5q-297 0 -478 165t-181 433zM479 612q0 -172 79 -267t220 -95q115 0 204.5 48.5t152.5 143.5 q60 91 92.5 205t32.5 234q0 176 -79.5 268t-230.5 92q-200 0 -335.5 -179.5t-135.5 -449.5zM706 1601q26 128 91.5 197t160.5 69q37 0 69.5 -12t67.5 -39l53 -41q16 -13 34 -20t34 -7q39 0 65.5 30.5t36.5 88.5h138q-26 -128 -91.5 -197t-158.5 -69q-38 0 -70 11t-70 40 l-49 37q-24 19 -40.5 25.5t-34.5 6.5q-36 0 -62 -32t-37 -88h-137zM805 1942l37 188h631l-37 -188h-631z" />
<glyph unicode="&#x22d;" horiz-adv-x="1407" d="M74 444q0 126 46 246.5t132 220.5q100 116 238.5 176t306.5 60q250 0 393 -127t143 -346q0 -127 -45 -246.5t-131 -218.5q-102 -118 -241 -178t-310 -60q-247 0 -389.5 127t-142.5 346zM449 444q0 -106 48.5 -161.5t141.5 -55.5q139 0 229 126.5t90 322.5 q0 105 -48.5 160t-141.5 55q-139 0 -229 -126t-90 -321zM465 1309q27 137 92.5 210.5t159.5 73.5q36 0 69.5 -13.5t70.5 -43.5l53 -43q18 -15 35 -23t32 -8q38 0 64 33.5t37 95.5h139q-26 -136 -91 -210t-159 -74q-34 0 -64 11.5t-75 45.5l-49 37q-3 2 -10 7q-38 30 -68 30 q-34 0 -60 -34.5t-36 -94.5h-140zM558 1684l37 188h631l-37 -188h-631z" />
<glyph unicode="&#x22e;" horiz-adv-x="1741" d="M74 569q0 183 55 345t162 292q128 158 305.5 236t409.5 78q298 0 479.5 -165.5t181.5 -432.5q0 -182 -55.5 -344t-161.5 -291q-130 -159 -307.5 -237.5t-409.5 -78.5q-297 0 -478 165t-181 433zM479 612q0 -172 79 -267t220 -95q115 0 204.5 48.5t152.5 143.5 q60 91 92.5 205t32.5 234q0 176 -79.5 268t-230.5 92q-200 0 -335.5 -179.5t-135.5 -449.5zM837 1654l47 246h275l-47 -246h-275z" />
<glyph unicode="&#x22f;" horiz-adv-x="1407" d="M74 444q0 126 46 246.5t132 220.5q100 116 238.5 176t306.5 60q250 0 393 -127t143 -346q0 -127 -45 -246.5t-131 -218.5q-102 -118 -241 -178t-310 -60q-247 0 -389.5 127t-142.5 346zM449 444q0 -106 48.5 -161.5t141.5 -55.5q139 0 229 126.5t90 322.5 q0 105 -48.5 160t-141.5 55q-139 0 -229 -126t-90 -321zM637 1263l56 292h358l-56 -292h-358z" />
<glyph unicode="&#x230;" horiz-adv-x="1741" d="M74 569q0 183 55 345t162 292q128 158 305.5 236t409.5 78q298 0 479.5 -165.5t181.5 -432.5q0 -182 -55.5 -344t-161.5 -291q-130 -159 -307.5 -237.5t-409.5 -78.5q-297 0 -478 165t-181 433zM479 612q0 -172 79 -267t220 -95q115 0 204.5 48.5t152.5 143.5 q60 91 92.5 205t32.5 234q0 176 -79.5 268t-230.5 92q-200 0 -335.5 -179.5t-135.5 -449.5zM812 1941l37 188h631l-37 -188h-631zM929 1623l47 246h275l-47 -246h-275z" />
<glyph unicode="&#x231;" horiz-adv-x="1407" d="M74 444q0 126 46 246.5t132 220.5q100 116 238.5 176t306.5 60q250 0 393 -127t143 -346q0 -127 -45 -246.5t-131 -218.5q-102 -118 -241 -178t-310 -60q-247 0 -389.5 127t-142.5 346zM449 444q0 -106 48.5 -161.5t141.5 -55.5q139 0 229 126.5t90 322.5 q0 105 -48.5 160t-141.5 55q-139 0 -229 -126t-90 -321zM536 1684l37 188h631l-37 -188h-631zM637 1263l56 292h358l-56 -292h-358z" />
<glyph unicode="&#x232;" horiz-adv-x="1483" d="M129 1493h385l254 -553l444 553h445l-737 -870l-121 -623h-385l121 623zM547 1683l37 188h631l-37 -188h-631z" />
<glyph unicode="&#x233;" horiz-adv-x="1335" d="M0 -442l37 235h113q88 0 136.5 29.5t86.5 103.5l33 60l-271 1134h338l154 -776l397 776h383l-709 -1226q-119 -207 -220 -271.5t-261 -64.5h-217zM467 1374l37 188h631l-37 -188h-631z" />
<glyph unicode="&#x234;" horiz-adv-x="1007" d="M66 -82q30 55 98 168q-90 112 -20 473l194 997h358l-202 -1042q94 92 200 92q87 0 128 -48q58 -68 24 -231q-31 -161 -114 -249q-97 -104 -263 -104q-91 0 -157 26q-51 -74 -96 -154zM504 246q18 -16 45 -16q134 0 150 89q5 25 -22 25q-75 0 -127 -51z" />
<glyph unicode="&#x235;" horiz-adv-x="1775" d="M75 0l218 1120h358l-32 -164q100 98 200 144q100 47 210 47q194 0 272 -119q77 -119 33 -346l-33 -168q94 92 200 92q81 0 123 -42q65 -66 30 -237q-36 -173 -127 -261q-95 -92 -251 -92q-91 0 -157 26q-50 -74 -95 -154l-150 72q30 55 98 168q-95 119 -29 436 q28 134 33 200q4 55 -7 81q-15 35 -47 55q-32 19 -78 19q-112 0 -193 -87q-81 -86 -110 -239l-108 -551h-358zM1311 246q19 -16 46 -16q135 4 149 89q4 25 -22 25q-74 2 -127 -51z" />
<glyph unicode="&#x236;" horiz-adv-x="1048" d="M70 864l50 256h178l62 318h358l-62 -318h369l-50 -256h-369l-68 -356q102 96 208 96q91 0 132 -52q53 -69 21 -227q-33 -158 -112 -245q-97 -108 -266 -108q-91 0 -157 26q-50 -74 -96 -154l-150 72q33 62 89 152q-12 9 -20 20q-72 89 -31 301l92 475h-178zM541 256 q19 -16 46 -16q135 4 149 89q4 25 -22 25q-74 2 -127 -51z" />
<glyph unicode="&#x237;" horiz-adv-x="702" d="M-262 -442l45 235h63q101 0 147.5 45.5t72.5 181.5l215 1100h360l-215 -1100q-46 -235 -171.5 -348.5t-338.5 -113.5h-178z" />
<glyph unicode="&#x238;" horiz-adv-x="2228" d="M52 559q51 259 216 423q165 165 372 165q116 0 196 -47q80 -46 135 -144l117 600h358h2l-116 -597q92 96 190 141q99 47 216 47q207 0 308 -165q101 -164 50 -423q-50 -259 -215 -423q-165 -165 -372 -165q-117 0 -198 47q-80 45 -134 141l-31 -159h-2h-358l31 162 q-93 -99 -191 -145t-215 -46q-207 0 -308 165q-101 164 -51 423zM423 559q-31 -160 13 -244t158 -84q115 0 192 84t108 244t-13 244t-159 84q-114 0 -191 -84t-108 -244zM1244 504q-15 -119 22 -188q45 -85 160 -85t192 84t108 244t-13 244t-159 84t-193 -85 q-64 -69 -96 -188z" />
<glyph unicode="&#x239;" horiz-adv-x="2228" d="M131 559q50 259 215 423q164 163 371 163q117 0 198 -46q80 -46 134 -145l33 166h358h2l-32 -161q92 96 190 141q99 47 216 47q207 0 308 -165q101 -164 51 -423q-51 -259 -216 -423q-165 -165 -372 -165q-117 0 -198 47q-80 45 -134 141l-114 -585h-2h-358l114 588 q-93 -99 -191 -145t-215 -46q-207 0 -308 165q-101 164 -50 423zM502 559q-32 -160 13 -244q44 -84 158 -84q115 0 192 84q76 84 108 244q31 160 -13 244q-45 84 -160 84q-114 0 -190 -84q-77 -84 -108 -244zM1322 504q-14 -119 23 -188q45 -85 160 -85t192 84 q76 84 108 244q31 160 -13 244q-45 84 -160 84t-193 -85q-63 -69 -96 -188z" />
<glyph unicode="&#x23a;" horiz-adv-x="1585" d="M-166 39l100 83l774 1371h459l52 -295l440 369l91 -115l-502 -420l182 -1032h-387l-41 272h-602l-148 -272h-238l-88 -74l-60 74h-1v1zM637 711l264 221l-31 211zM670 549h289l-32 214z" />
<glyph unicode="&#x23b;" horiz-adv-x="1503" d="M-207 39l333 278q-73 178 -24 428q69 358 328 567q258 208 631 208q125 0 235 -28q85 -22 162 -60l160 135l91 -115l-239 -200l-29 -152q-42 33 -84 57l-846 -707q14 -37 36 -68q92 -132 298 -132q115 0 226 34t232 107l-60 -309q-117 -55 -237 -83q-121 -28 -246 -28 q-373 0 -550 209l-9 10l-316 -264zM485 618l720 603q-78 20 -167 20q-206 0 -350 -132q-143 -132 -188 -364q-13 -68 -15 -127z" />
<glyph unicode="&#x23c;" horiz-adv-x="1214" d="M-124 0l240 213q-69 139 -28 346q53 277 255 433q201 155 504 155q88 0 170 -15q53 -10 104 -27l126 112l89 -101l-183 -162l-31 -161q-43 34 -88 56l-560 -497q9 -20 22 -38q67 -87 217 -87q84 0 164 25q81 25 154 74l-57 -293q-90 -31 -179 -47q-90 -15 -177 -15 q-281 0 -423 134l-225 -199zM453 512l425 378q-18 1 -36 1q-150 0 -250 -87q-101 -88 -131 -245q-5 -24 -8 -47z" />
<glyph unicode="&#x23d;" horiz-adv-x="1305" d="M-27 621l50 260h191l119 612h385l-119 -612h201l-50 -260h-201l-65 -330h676l-56 -291h-1061l121 621h-191z" />
<glyph unicode="&#x23e;" horiz-adv-x="1397" d="M-260 39l751 628l104 535h-495l56 291h1321l88 74l91 -115l-158 -132l-22 -118h-118l-452 -377l-160 -825h-385l85 440l-614 -514zM950 1052l180 150h-150z" />
<glyph unicode="&#x23f;" horiz-adv-x="1219" d="M67 41l53 272q97 -52 205 -78q107 -26 223 -26q105 0 164 29q58 29 69 86q10 48 -22 72q-31 22 -139 36l-61 8q-234 30 -314 111t-48 246q35 178 174 264q138 86 390 86q99 0 205 -15t228 -47l-53 -272q-105 48 -208 72q-102 24 -197 24q-102 0 -156 -25q-55 -26 -65 -79 q-9 -43 24 -66q34 -23 128 -34l62 -9q268 -35 347 -115q80 -80 46 -251q-34 -179 -184 -269q-139 -84 -375 -90l172 -157q77 -71 155 -71h215l-45 -235h-207q-168 0 -299 120l-195 180q-225 206 -282 230z" />
<glyph unicode="&#x240;" horiz-adv-x="1192" d="M31 0l49 250l709 614h-565l50 256h977l-49 -250l-847 -729q90 -58 187 -148l196 -179q77 -71 155 -71h215l-46 -235h-207q-167 0 -298 120l-195 180q-191 175 -331 192z" />
<glyph unicode="&#x241;" horiz-adv-x="1601" d="M142 1062l15 77q30 155 91 220q23 24 61 53q87 63 229 76q51 5 116 5h418q285 0 413 -127q128 -126 82 -360q-45 -235 -222 -362q-177 -126 -462 -126h-33l-101 -518h-385l155 797h377q112 0 183 55q72 54 91 154q20 100 -31 154q-50 54 -162 54h-377q-78 0 -79 -1 q-44 0 -64 -20q-38 -37 -50 -84q-3 -14 -10 -47h-255z" />
<glyph unicode="&#x242;" horiz-adv-x="1258" d="M114 716q88 432 541 431q323 0 453 -127q128 -126 83 -360q-46 -235 -224 -362q-124 -88 -301 -115l-35 -183h-385l87 451h186q111 0 184 55q71 54 91 154q19 100 -31 154q-51 54 -163 54q-132 0 -161 -152h-325z" />
<glyph unicode="&#x243;" horiz-adv-x="1561" d="M-71 321l51 260h176l177 912h578q311 0 432 -94q122 -94 81 -301q-21 -109 -87 -186q-66 -76 -170 -113q117 -36 166 -133t22 -238q-42 -216 -209 -322q-166 -106 -464 -106h-639l62 321h-176zM479 262h226q116 0 184 49t87 148q19 97 -30 145q-48 49 -165 49h-226 l-14 -72h233l-51 -260h-233zM606 915h213q91 0 146 40q54 40 69 118q15 77 -24 117q-39 41 -130 41h-213z" />
<glyph unicode="&#x244;" horiz-adv-x="1663" d="M41 696l38 194h140l117 603h385l-117 -603h517l117 603h385l-117 -603h141l-38 -194h-141l-19 -98q-62 -317 -251 -472t-515 -155q-325 0 -454 155t-67 472l19 98h-140zM547 598q-36 -185 9 -264q45 -80 182 -80q138 0 214 80q76 79 112 264l19 98h-517z" />
<glyph unicode="&#x245;" horiz-adv-x="1585" d="M-135 0l843 1493h459l263 -1493h-387l-173 1143l-618 -1143h-387z" />
<glyph unicode="&#x246;" horiz-adv-x="1399" d="M43 0l290 1493h795l94 190h172l-94 -190h72l-56 -291h-160l-138 -278h205l-57 -291h-292l-170 -342h456l-56 -291h-544l-94 -190h-171l94 190h-346zM484 291h49l169 342h-151zM608 924h238l138 278h-322z" />
<glyph unicode="&#x247;" horiz-adv-x="1389" d="M74 412q0 68 15 147q53 274 249 431t486 157q97 0 175 -21l128 184h172l-169 -243q176 -119 176 -359q0 -68 -14 -145l-20 -102h-564l-158 -228q58 -24 158 -24q214 0 488 135l-54 -276q-275 -97 -526 -97q-130 0 -229 28l-132 -189h-171l171 246q-181 115 -181 356z M433 407.5q0 -34.5 15 -73.5l89 127h-102q-2 -19 -2 -53.5zM482 682h208l152 218q-30 9 -66 9q-104 0 -180.5 -58.5t-113.5 -168.5zM862 682h85q6 30 6 60t-9 57z" />
<glyph unicode="&#x248;" horiz-adv-x="762" d="M-339 -410l57 291h60q120 0 194.5 67t99.5 197l82 420h-188l51 266h188l129 662h385l-129 -662h164l-51 -266h-164l-82 -420q-54 -279 -232.5 -417t-485.5 -138h-78z" />
<glyph unicode="&#x249;" horiz-adv-x="702" d="M-262 -442l45 235h62q102 0 149 46t74 181l81 418h-208l38 194h208l94 488h358l-94 -488h208l-38 -194h-208l-81 -418q-44 -225 -175 -344q-131 -118 -336 -118h-177zM309 1264l57 292h358l-57 -292h-358z" />
<glyph unicode="&#x24a;" horiz-adv-x="1762" d="M136 744q66 341 283.5 557t490.5 216q153 0 259.5 -61t178.5 -190l45 227h365l-262 -1348q-26 -130 22.5 -197t168.5 -67h80l-56 -291h-78q-307 0 -432 138t-70 417l15 77q-124 -130 -253 -190.5t-283 -60.5q-273 0 -406.5 216.5t-67.5 556.5zM536 745q-47 -241 20 -368 t239 -127q173 0 289 127t163 368q47 242 -19.5 369t-239.5 127q-172 0 -288.5 -127t-163.5 -369z" />
<glyph unicode="&#x24b;" horiz-adv-x="1620" d="M132 559q50 259 215 423q165 165 372 165q116 0 196 -47q81 -46 136 -144l32 164h360l-214 -1100q-26 -135 3 -181t131 -46h166l-45 -235h-281q-306 0 -343 255q-12 83 5 187l32 162q-93 -99 -191 -145t-215 -46q-207 0 -308 165q-101 164 -51 423zM503 559 q-31 -160 14 -244q43 -84 157 -84q115 0 193 84q76 84 107 244t-12 244q-45 84 -160 84q-114 0 -190 -84q-78 -84 -109 -244z" />
<glyph unicode="&#x24c;" horiz-adv-x="1577" d="M-23 565l50 260h177l130 668h569q246 0 373 -92t127 -271q0 -181 -100 -298t-271 -134q78 -16 130 -80q52 -63 91 -194l127 -424h-383l-112 371q-34 111 -82.5 152.5t-140.5 41.5h-123l-111 -565h-385l110 565h-176zM590 831h162q131 0 198.5 61t67.5 179 q0 74 -46.5 108.5t-146.5 34.5h-159z" />
<glyph unicode="&#x24d;" horiz-adv-x="1010" d="M-68 438l37 194h214l95 488h358l-36 -184q91 110 190 160q99 51 224 51q18 0 39 -1q21 -2 60 -7l-62 -324q-43 22 -87 33q-45 10 -92 10q-132 0 -213 -74q-80 -74 -106 -152h189l-37 -194h-201l-85 -438h-358l85 438h-214z" />
<glyph unicode="&#x24e;" horiz-adv-x="1483" d="M61 1112l38 194h113l-87 187h421l84 -187h440l156 187h422l-159 -187h112l-38 -194h-240l-412 -483l-122 -629h-385l122 629l-224 483h-241zM715 1112l68 -151l126 151h-194z" />
<glyph unicode="&#x24f;" horiz-adv-x="1335" d="M20 488l38 194h222l-103 438h358l88 -438h236l233 438h358l-253 -438h213l-38 -194h-288l-343 -594q-109 -188 -216 -262q-110 -74 -265 -74h-207l46 235h112q91 0 139 29q46 29 84 104l16 31l-125 531h-305zM662 488l26 -128l68 128h-94z" />
<glyph unicode="&#x250;" horiz-adv-x="1382" d="M136 317q0 34 4.5 76.5t13.5 85.5l127 641h358l-32 -168q88 100 186 147.5t213 47.5q159 0 252.5 -82.5t93.5 -222.5q0 -214 -165.5 -327.5t-477.5 -113.5h-211l-4 -28q-3 -14 -3.5 -20t-0.5 -11q0 -66 62.5 -99.5t185.5 -33.5q111 0 215 23t201 69l-54 -273 q-112 -28 -229.5 -42.5t-243.5 -14.5q-249 0 -370 85.5t-121 260.5zM541 614h172q134 0 202.5 41.5t68.5 122.5q0 61 -40.5 96t-111.5 35q-110 0 -184 -66.5t-99 -187.5z" />
<glyph unicode="&#x251;" horiz-adv-x="1466" d="M92 559q50 259 215 423q165 165 372 165q116 0 197 -47q80 -46 135 -144l32 164h360l-218 -1120h-360l32 162q-93 -99 -191 -145t-215 -46q-207 0 -308 165q-101 164 -51 423zM463 559q-31 -160 13 -244t158 -84q115 0 192 84t108 244t-13 244t-159 84q-114 0 -191 -84 t-108 -244z" />
<glyph unicode="&#x252;" horiz-adv-x="1466" d="M-17 -2l218 1120h360l-32 -162q93 99 191 145t215 46q207 0 308 -165q101 -164 51 -423t-215 -423q-165 -165 -372 -165q-116 0 -197 47q-80 46 -135 144l-32 -164h-360zM452 559q-31 -160 13 -244t159 -84q114 0 191 84t108 244t-13 244t-158 84q-115 0 -192 -84 t-108 -244z" />
<glyph unicode="&#x253;" horiz-adv-x="1466" d="M24 0l212 1094q44 223 177 344q131 118 336 118h281l-46 -235h-166q-102 0 -149 -46t-73 -181l-26 -135q92 96 190 141q99 47 216 47q207 0 308 -165q101 -164 50 -423q-50 -259 -215 -423q-165 -165 -372 -165q-117 0 -198 47q-81 46 -136 144l-31 -162h-358zM490 559 q-31 -159 14 -243q45 -85 160 -85t192 84t108 244t-13 244t-159 84t-193 -85q-78 -84 -109 -243z" />
<glyph unicode="&#x254;" horiz-adv-x="1214" d="M-15 33l57 292q72 -48 142 -73t137 -25q175 0 286 117.5t111 300.5q0 117 -69 181.5t-195 64.5q-84 0 -165 -25t-154 -74l55 293q89 31 179 46.5t181 15.5q264 0 406.5 -118.5t142.5 -336.5q0 -137 -52.5 -266t-150.5 -232q-109 -113 -250 -168t-325 -55q-85 0 -169 15.5 t-167 46.5z" />
<glyph unicode="&#x255;" horiz-adv-x="1214" d="M99 559q54 277 255 433q201 155 504 155q88 0 170 -15q83 -16 162 -47l-57 -292q-63 50 -132 74t-148 24q-150 0 -250 -87q-101 -88 -131 -245q-24 -123 11 -203q137 176 304 176q285 -5 242 -238q-57 -323 -372 -323h-23h-4h-7q-69 0 -72 1q-3 0 -6 1l-22 -114l-200 1 q17 87 31 155q-102 38 -168 111q-141 156 -87 433zM608 232q53 -24 106 -25h5q147 0 158 57q13 75 -118 75q-83 0 -151 -107z" />
<glyph unicode="&#x256;" horiz-adv-x="1620" d="M92 559q51 259 216 423q165 165 372 165q116 0 196 -47q81 -46 136 -144l116 600h360l-298 -1536q-27 -135 2 -181t131 -46h166l-45 -235h-281q-306 0 -343 255q-12 83 6 187l31 162q-93 -99 -191 -145t-215 -46q-207 0 -308 165q-101 164 -51 423zM463 559 q-31 -160 13 -244q45 -84 159 -84q115 0 191 84q77 84 108 244t-13 244t-159 84q-114 0 -191 -84t-108 -244z" />
<glyph unicode="&#x257;" horiz-adv-x="1622" d="M52 559q51 259 216 423q165 165 372 165q116 0 196 -47q41 -23 91 -88q39 -49 44 -56l29 138q48 227 177 344q131 118 336 118h281l-46 -235h-166q-102 0 -149 -46t-73 -181l-214 -1094h-360l31 162q-93 -99 -191 -145t-215 -46q-207 0 -308 165q-101 164 -51 423z M423 559q-31 -160 13 -244t158 -84q115 0 192 84t108 244t-13 244t-159 84q-114 0 -191 -84t-108 -244z" />
<glyph unicode="&#x258;" horiz-adv-x="1389" d="M46 68l53 276q112 -68 224 -102q112 -33 225 -33q140 0 230 63t128 189h-837l20 102q51 266 241 425q189 159 453 159q290 0 425 -157t82 -431q-54 -279 -253 -433q-198 -155 -502 -155q-127 0 -250 25q-122 24 -239 72zM480 682h465q5 110 -48 168q-54 59 -158 59 q-96 0 -168 -63q-71 -62 -91 -164z" />
<glyph unicode="&#x259;" horiz-adv-x="1389" d="M87 555l20 102h837q12 126 -54 189t-206 63q-113 0 -238 -33q-125 -34 -263 -102l53 276q137 48 269 72q131 25 258 25q304 0 443 -155q138 -154 84 -433q-53 -274 -249 -431t-486 -157q-264 0 -392 159q-127 159 -76 425zM432 436q-20 -102 28 -164q47 -63 143 -63 q104 0 180 59q77 58 114 168h-465z" />
<glyph unicode="&#x25a;" horiz-adv-x="1794" d="M77 334l855 443q-13 41 -42 69q-66 63 -206 63q-113 0 -238 -33q-125 -34 -263 -102l53 276q137 48 269 72q131 25 258 25q304 0 443 -155q21 -23 38 -50l245 130l199 2l-33 -171q-34 -176 -7 -232q27 -55 132 -55h43l-35 -180h-96q-183 0 -240 111q-48 91 -15 257 l-132 -68q4 -81 -15 -177q-53 -274 -249 -431t-486 -157q-264 0 -392 159q-69 86 -86 204zM445 295q6 -12 15 -23q47 -63 143 -63q104 0 180 59q77 58 114 168l20 104z" />
<glyph unicode="&#x25b;" horiz-adv-x="1140" d="M56 246q0 157 106 256q77 72 204 102q-177 43 -177 193q0 27 6 56q29 151 159 222.5t362 71.5q175 0 348 -48l-46 -239q-55 27 -137 43t-159 16t-139 -35q-72 -41 -72 -84t43.5 -72.5t160.5 -29.5h124l-44 -224h-118q-129 0 -200 -38q-86 -45 -86 -116q0 -46 53 -82.5 t150 -36.5q193 0 362 78l-49 -252q-191 -56 -378 -56q-473 0 -473 275z" />
<glyph unicode="&#x25c;" horiz-adv-x="1116" d="M-103 34l46 236q82 -34 183 -51q102 -18 215 -18q114 0 151 15q109 25 126 114q15 79 -75 111q-59 21 -109 21h-183l42 219h117q104 0 171 24q89 30 102 99q10 49 -68 87q-45 24 -168 24q-3 0 -114 -12q-85 -9 -227 -40l45 236q126 24 234 36q107 12 200 12 q240 0 365 -79t92 -252q-17 -87 -104 -153q-84 -64 -229 -90q148 -23 218 -97q71 -74 46 -203q-22 -112 -198 -204q-175 -91 -470 -91q-99 0 -201 14q-101 14 -207 42z" />
<glyph unicode="&#x25d;" horiz-adv-x="1585" d="M-103 34l46 236q82 -34 183 -51q102 -18 215 -18q114 0 151 15q109 25 126 114q15 79 -75 111q-59 21 -109 21h-183l42 219h117q104 0 171 24q89 30 102 99q10 49 -68 87q-45 24 -168 24q-3 0 -114 -12q-85 -9 -227 -40l45 236q125 24 234 36q108 12 200 12 q240 0 365 -79q73 -46 92 -124l237 128l199 2l-33 -171q-34 -176 -7 -232q27 -55 132 -55h43l-35 -180h-96q-183 0 -240 111q-47 91 -15 257l-348 -181v3q-71 -36 -170 -53q148 -23 218 -97q71 -74 46 -203q-22 -112 -198 -204q-175 -91 -470 -91q-99 0 -201 14 q-101 14 -207 42z" />
<glyph unicode="&#x25e;" horiz-adv-x="1498" d="M110 559q54 277 255 433q201 155 618 155q232 0 334 -72q103 -71 73 -222q-19 -97 -87 -161q-67 -63 -180 -88q115 -30 164 -102t27 -184q-33 -173 -186 -260t-414 -87q-376 0 -517 155q-141 156 -87 433zM483 559q-33 -170 32 -263q68 -96 203 -95q116 0 189 39 q74 40 85 98q12 60 -48 99q-55 37 -184 37h-118l44 224h124q117 0 173 30q63 34 72 78q8 42 -41 78q-48 35 -143 35q-136 1 -254 -99q-99 -82 -134 -261z" />
<glyph unicode="&#x25f;" horiz-adv-x="702" d="M-220 -442l46 235h62q102 0 149 46t73 181l81 418h-207l37 194h208l95 488h358l-95 -488h207l-37 -194h-208l-81 -418q-44 -225 -175 -344q-131 -118 -336 -118h-177z" />
<glyph unicode="&#x260;" horiz-adv-x="1622" d="M47 -377l55 279q83 -54 168 -80q85 -27 176 -27q176 0 273 77t129 241l15 77q-93 -98 -191 -144t-215 -46q-205 0 -308 162q-102 161 -54 411q44 226 209 387q165 160 370 160h369h3q46 204 171 318q131 118 336 118h281l-45 -235h-166q-102 0 -149 -46t-74 -181 l-42 -220h-2l-148 -761q-53 -270 -251 -413q-198 -142 -522 -142q-105 0 -200 16t-188 49zM466 573q-30 -154 15 -233q44 -80 159 -80q112 0 190 82t107 231l61 314h-236q-111 0 -189 -82t-107 -232z" />
<glyph unicode="&#x261;" horiz-adv-x="1466" d="M90 -377l54 279q84 -54 168 -80q85 -27 176 -27q176 0 273 77t129 241l15 77q-93 -98 -191 -144t-215 -46q-205 0 -308 162q-102 161 -54 411q44 226 210 387q165 160 370 160h369h360l-196 -1007q-52 -270 -251 -413q-198 -142 -522 -142q-105 0 -200 16t-187 49z M508 573q-29 -154 15 -233q45 -80 160 -80q112 0 190 82t106 231l62 314h-236q-111 0 -189 -82t-108 -232z" />
<glyph unicode="&#x262;" horiz-adv-x="1285" d="M88 545q53 275 242 425q189 149 467 149q107 0 202 -20q94 -20 174 -60l-46 -236q-81 49 -165 73t-174 24q-165 0 -272 -89q-107 -88 -141 -266q-35 -177 34 -266t229 -89q43 0 81 6q38 5 70 16l31 168h-276l49 250h540l-109 -558q-113 -50 -230 -76q-116 -25 -235 -25 q-269 0 -396 151q-128 150 -75 423z" />
<glyph unicode="&#x263;" horiz-adv-x="1505" d="M178 -104q30 156 280 460l-256 764h379l137 -472l321 472h379l-554 -764q132 -304 102 -460q-64 -328 -458 -328t-330 328zM523 -89q-17 -87 34 -87q52 0 69 87q13 70 -24 142q-66 -74 -79 -142z" />
<glyph unicode="&#x264;" horiz-adv-x="1301" d="M164 1120h379l172 -296l286 296h379l-505 -516q153 -196 129 -320q-64 -328 -458 -328t-330 328q24 124 253 320zM561 299q-16 -83 34 -87q52 0 68 87q12 59 -25 131q-66 -74 -77 -131z" />
<glyph unicode="&#x265;" horiz-adv-x="1458" d="M181 436l132 682h360l-21 -111l-80 -409q-28 -147 -33 -202q-4 -55 7 -81q14 -35 47 -55q32 -19 78 -19q112 0 193 87q80 86 110 239l107 551h358l-302 -1556h-358l116 600q-100 -98 -200 -144q-100 -47 -210 -47q-194 0 -271 119t-33 346z" />
<glyph unicode="&#x266;" horiz-adv-x="1458" d="M21 0l212 1094q44 223 177 344q131 118 336 118h281l-45 -235h-166q-102 0 -149 -46t-74 -181l-26 -136q99 97 198 142q100 47 210 47q194 0 271 -119t33 -346l-132 -682h-360l21 111l80 409q28 147 33 202q4 55 -7 81q-14 35 -47 55q-32 19 -78 19q-112 0 -193 -87 q-80 -86 -110 -239l-107 -551h-358z" />
<glyph unicode="&#x267;" horiz-adv-x="1458" d="M64 0l212 1094q44 223 177 344q131 118 336 118h281l-45 -235h-166q-102 0 -149 -46t-74 -181l-26 -136q99 97 198 142q100 47 210 47q194 0 271 -119t33 -346l-86 -442l-42 -220l-4 -20q-46 -208 -173 -324q-131 -118 -336 -118h-281l45 235h166q102 0 149 46t74 181 l17 91l25 129l55 280q28 147 33 202q4 55 -7 81q-14 35 -47 55q-32 19 -78 19q-112 0 -193 -87q-80 -86 -110 -239l-107 -551h-358z" />
<glyph unicode="&#x268;" horiz-adv-x="1117" d="M106 438l38 194h214l94 488h358l-94 -488h201l-38 -194h-201l-85 -438h-358l85 438h-214zM480 1264l57 292h358l-57 -292h-358z" />
<glyph unicode="&#x269;" horiz-adv-x="902" d="M151 460l128 660h360l-128 -660q-26 -135 3 -181q34 -55 131 -46l22 2l-46 -235l-137 -2q-202 -3 -290 118q-87 120 -43 344z" />
<glyph unicode="&#x26a;" horiz-adv-x="1117" d="M63 0l46 235h215l126 650h-215l46 235h215h358h200l-46 -235h-200l-126 -650h200l-46 -235h-200h-358h-215z" />
<glyph unicode="&#x26b;" horiz-adv-x="1144" d="M144 635q27 136 100 210q73 73 179 74l123 637h358l-148 -764q23 8 42 28q29 32 40 89l2 8h159q-26 -136 -100 -210q-71 -72 -174 -74l-123 -633h-358l148 762q-27 -7 -47 -29q-28 -31 -39 -90l-2 -8h-160z" />
<glyph unicode="&#x26c;" horiz-adv-x="1420" d="M191 877q57 313 405 311q106 -1 161 -55l82 423h358l-144 -743h202l-42 -213h-202l-116 -600h-358l117 600l-205 1q-307 1 -258 276zM399 886q-13 -75 91 -75h200q-3 84 -29 107q-39 34 -128 34q-123 0 -134 -66z" />
<glyph unicode="&#x26d;" horiz-adv-x="702" d="M66 0l302 1556h360l-298 -1536q-26 -134 2 -181q29 -46 131 -46h166l-45 -235h-281q-206 0 -290 118q-87 121 -47 324z" />
<glyph unicode="&#x26e;" horiz-adv-x="1723" d="M64 0l302 1556h358l-85 -436h975l-48 -250l-503 -434q160 -9 242 -32q119 -33 183 -146q59 -102 31 -245q-43 -222 -236 -337q-192 -116 -518 -116q-115 0 -227 18q-112 19 -218 56l58 297q98 -54 199 -81q101 -28 204 -28q153 0 245 53t111 152q20 102 -54 155 q-73 52 -236 52h-187l48 245l444 385h-563l-167 -864h-358z" />
<glyph unicode="&#x26f;" horiz-adv-x="2134" d="M141 436l132 682h360l-113 -584q-4 -13 -7 -27t-8 -40q-23 -119 1 -173q25 -53 103 -53q102 0 174 84t105 243l106 550h360l-113 -584q-36 -186 -15 -240q22 -53 104 -53q103 0 175 85q73 84 103 241l107 551h360l-217 -1120h-360l32 164q-85 -95 -180 -143 q-94 -48 -197 -48q-116 0 -195 56q-78 56 -104 157q-88 -104 -192 -158q-104 -55 -216 -55q-193 0 -271 119t-34 346z" />
<glyph unicode="&#x270;" horiz-adv-x="2134" d="M180 436l132 682h360l-113 -584q-4 -13 -7 -27t-8 -40q-23 -119 1 -173q25 -53 103 -53q102 0 174 84q71 84 104 243l107 550h360l-113 -584q-36 -186 -15 -240q22 -53 104 -53q103 0 175 85q73 84 103 241l107 551h360l-300 -1546h-360l114 590q-84 -95 -179 -143 t-198 -48q-116 0 -194 56t-104 157q-89 -104 -193 -158q-104 -55 -216 -55q-193 0 -271 119q-77 119 -33 346z" />
<glyph unicode="&#x271;" horiz-adv-x="2134" d="M101 0l218 1120h360l-32 -164q85 95 180 143q94 48 197 48q116 0 195 -56q78 -56 104 -157q88 104 192 158q104 55 216 55q193 0 271 -119t34 -346l-127 -662q-43 -223 -177 -344q-130 -118 -335 -118h-281l45 235h166q102 0 149 46t69 161l127 651q23 119 -1 173 q-25 53 -103 53q-102 0 -174 -84t-105 -243l-107 -550h-360l114 584q36 186 15 240q-22 53 -104 53q-103 0 -175 -85q-73 -84 -103 -241l-108 -551h-360z" />
<glyph unicode="&#x272;" horiz-adv-x="1458" d="M-328 -442l45 235h166q100 0 149 46t75 181l43 220l171 880h358l-32 -164q100 98 200 144q100 47 210 47q194 0 272 -119q77 -119 33 -346l-133 -682h-360l22 111l80 411q28 145 32 200q5 55 -6 81q-15 35 -47 55q-32 19 -78 19q-112 0 -193 -87q-81 -86 -110 -239 l-61 -311l-43 -220l-4 -20q-45 -208 -172 -324q-131 -118 -336 -118h-281z" />
<glyph unicode="&#x273;" horiz-adv-x="1624" d="M103 0l218 1120h358l-32 -164q103 100 200 144q99 47 210 47q193 0 272 -119q77 -120 33 -346l-129 -662q-26 -134 3 -181q28 -46 131 -46h166l-45 -235h-281q-206 0 -290 118q-92 128 -54 324l141 722q7 50 -7 81q-14 34 -47 55q-34 19 -78 19q-103 0 -193 -87 q-79 -75 -110 -239l-108 -551h-358z" />
<glyph unicode="&#x274;" horiz-adv-x="1315" d="M-66 0l218 1120h430l181 -651l127 651h365l-218 -1120h-430l-181 651l-127 -651h-365z" />
<glyph unicode="&#x275;" horiz-adv-x="1407" d="M74 444q0 126 46 246.5t132 220.5q100 116 238.5 176t306.5 60q250 0 393 -127t143 -346q0 -127 -45 -246.5t-131 -218.5q-102 -118 -241 -178t-310 -60q-247 0 -389.5 127t-142.5 346zM451 442q0 -79 27 -130q45 -85 162 -85q119 0 199 85q60 65 92 174h-478 q-2 -23 -2 -44zM498 680h464q-1 76 -28 126q-45 85 -164 85q-117 0 -196 -85q-46 -50 -76 -126z" />
<glyph unicode="&#x276;" horiz-adv-x="1861" d="M88 561q53 270 259 415t537 145q8 0 26 -1h28h846l-43 -218h-417l-40 -209h388l-43 -218h-388l-49 -257h434l-43 -218h-863q-10 0 -27 -1q-18 -1 -27 -1q-332 0 -481 146t-97 417zM442 561q-33 -172 36 -257q70 -86 243 -86h111l132 684h-111q-173 0 -275 -85 q-103 -85 -136 -256z" />
<glyph unicode="&#x277;" horiz-adv-x="1396" d="M-18 496q41 213 112 332q207 348 614 348q396 0 480 -348q25 -103 -19 -332q-47 -241 -158 -368q-111 -128 -259 -128q-99 0 -161 68q-60 64 -55 220q-56 -151 -142 -220q-84 -68 -187 -68q-148 0 -210 128q-61 126 -15 368zM343 334q2 -70 25 -70q34 0 60 78 q20 57 37 148l20 106h220l-21 -108q-19 -96 -20 -141q-2 -83 25 -83q26 -1 55 79q43 118 63 223q69 353 -148 354q-219 0 -288 -356q-31 -160 -28 -230z" />
<glyph unicode="&#x278;" horiz-adv-x="1631" d="M122 559q50 257 221 432q124 125 399 150l81 415h356l-81 -415q266 -25 340 -150q104 -175 54 -432q-52 -269 -253 -431q-149 -121 -367 -152l-79 -402h-356l79 402q-207 31 -310 152q-136 162 -84 431zM481 559q-35 -182 37 -247l54 -46l117 601q-28 1 -71 -43 q-108 -116 -137 -265zM793 -426zM928 266l71 46q99 65 134 247q29 149 -35 265q-25 44 -53 43zM1179 1556z" />
<glyph unicode="&#x279;" horiz-adv-x="1102" d="M63 -19l62 324q43 -22 87 -33q45 -10 92 -10q138 0 229 88q92 89 124 254l100 516h358l-217 -1120h-358l36 184q-91 -110 -190 -160q-99 -51 -224 -51q-18 0 -39 1q-21 2 -60 7z" />
<glyph unicode="&#x27a;" horiz-adv-x="1102" d="M21 -19l62 324q42 -22 87 -33q44 -10 91 -10q138 0 230 88q91 88 124 254l185 953h358l-303 -1557h-358l36 184q-90 -110 -190 -160q-99 -51 -224 -51q-18 0 -39 1q-20 2 -59 7z" />
<glyph unicode="&#x27b;" horiz-adv-x="1331" d="M103 -19l62 324q43 -22 88 -33q44 -10 91 -10q138 0 230 88q91 89 124 254l100 516h358l-213 -1100q-26 -135 3 -181t131 -46h166l-46 -235h-281q-205 0 -290 118q-86 121 -43 344l32 162q-90 -108 -189 -158q-99 -51 -224 -51q-18 0 -39 1q-21 2 -60 7z" />
<glyph unicode="&#x27c;" horiz-adv-x="1010" d="M19 -426l301 1546h358l-36 -184q90 110 190 160q99 51 224 51q18 0 39 -1q20 -2 59 -7l-62 -324q-42 22 -87 33q-44 10 -91 10q-136 0 -230 -88q-91 -86 -124 -254l-183 -942h-358z" />
<glyph unicode="&#x27d;" horiz-adv-x="1010" d="M105 20l214 1100h360l-36 -184q91 110 190 160q99 51 224 51q18 0 39 -1q21 -2 60 -7l-62 -324q-43 22 -87 33q-45 10 -92 10q-138 0 -229 -88q-92 -89 -124 -254l-97 -496q-26 -135 3 -181t131 -46h166l-45 -235h-281q-205 0 -290 118q-87 121 -44 344z" />
<glyph unicode="&#x27e;" horiz-adv-x="1220" d="M63 0l46 235h210l81 423q43 223 177 344q131 118 336 118h281l-46 -235h-166q-104 0 -149 -46q-48 -49 -73 -181l-81 -423h203l-46 -235h-773z" />
<glyph unicode="&#x27f;" horiz-adv-x="1220" d="M203 0l46 235h203l83 423q26 132 -3 181q-26 46 -131 46h-166l46 235h281q205 0 290 -118q87 -121 43 -344l-83 -423h210l-46 -235h-773z" />
<glyph unicode="&#x280;" horiz-adv-x="1315" d="M-66 0l218 1120h495q236 0 331 -74q96 -75 65 -235q-22 -111 -93 -183q-71 -71 -192 -104q60 -14 101 -62q41 -47 73 -144l105 -318h-363l-91 278q-23 71 -60 100q-39 31 -114 31h-37l-80 -409h-358zM415 630h79q91 0 136 32q46 32 60 105q14 72 -20 104q-33 30 -124 30 h-79z" />
<glyph unicode="&#x281;" horiz-adv-x="1315" d="M-66 0l218 1120h358l-80 -409h37q75 0 126 31q49 29 100 100l199 278h363l-229 -318q-70 -97 -129 -144q-59 -48 -125 -62q109 -33 152 -104q43 -72 21 -183q-31 -160 -155 -235q-125 -74 -361 -74h-495zM335 219h79q91 0 136 30q46 32 60 104q14 73 -20 105 q-33 32 -124 32h-79z" />
<glyph unicode="&#x282;" horiz-adv-x="1219" d="M58 20l4 21l39 199l14 73q97 -52 205 -78q107 -26 223 -26q105 0 164 29q58 29 69 86q10 48 -22 72q-32 23 -139 36l-61 8q-234 30 -313 111q-81 81 -49 246q35 178 174 264q138 86 390 86q99 0 206 -15q106 -15 227 -47l-52 -272q-106 48 -208 72q-103 24 -198 24 q-102 0 -156 -25q-55 -26 -65 -79q-8 -43 25 -66t128 -34l61 -9q268 -35 347 -115q80 -80 47 -251q-35 -179 -185 -269q-149 -90 -411 -90q-55 0 -111 4q-14 -98 10 -136q29 -46 131 -46h166l-45 -235h-281q-205 0 -290 118q-87 121 -44 344z" />
<glyph unicode="&#x283;" horiz-adv-x="850" d="M-258 -442l45 235h62q102 0 149 46t74 181l229 1178q35 183 154 270q119 88 333 88h274l-45 -235h-198q-76 0 -112 -27q-35 -28 -48 -96l-233 -1198q-40 -205 -171 -324q-131 -118 -336 -118h-177z" />
<glyph unicode="&#x284;" horiz-adv-x="891" d="M-217 -442l45 235h62q102 0 149 46t74 181l81 418h-208l38 194h208l45 232h-178l49 256h178l16 78q35 183 154 270q119 88 333 88h274l-45 -235h-198q-76 0 -112 -27q-35 -29 -48 -96l-110 -566h207l-38 -194h-207l-85 -438q-46 -210 -171 -324q-131 -118 -336 -118h-177 z" />
<glyph unicode="&#x285;" horiz-adv-x="1239" d="M281 912l45 235h274q214 0 299 -88q85 -87 50 -270l-150 -769q-26 -135 3 -181t131 -46h62l-45 -235h-177q-205 0 -290 118q-85 119 -46 324l154 789q13 68 -11 96q-25 27 -101 27h-198z" />
<glyph unicode="&#x286;" horiz-adv-x="1130" d="M-198 -133q57 275 365 276l209 1l205 1054q35 183 154 270q119 88 333 88h274l-45 -235h-198q-76 0 -111 -27q-36 -28 -49 -96l-205 -1054h168l-41 -211q-56 0 -171 -1q-46 -157 -155 -256q-131 -118 -336 -118h-113v-2q-31 0 -58 2h-6v1q-279 25 -220 308zM6 -142 q-12 -58 80 -65h44q102 0 149 46q29 29 51 93q-140 1 -203 1q-104 0 -121 -75z" />
<glyph unicode="&#x287;" horiz-adv-x="979" d="M-51 0l50 256h369l92 475q15 78 -10 105q-26 28 -118 28h-184l50 256h307q212 0 283 -88q71 -89 30 -301l-92 -475h178l-50 -256h-178l-62 -318h-358l62 318h-369z" />
<glyph unicode="&#x288;" horiz-adv-x="979" d="M98 864l50 256h178l62 318h358l-62 -318h369l-50 -256h-369l-164 -844q-26 -135 3 -181t131 -46h165l-46 -235h-280q-205 0 -290 118q-85 119 -41 344l164 844h-178z" />
<glyph unicode="&#x289;" horiz-adv-x="1885" d="M151 438l38 194h214l95 488h360l-22 -112q-18 -91 -46 -228q-19 -97 -29 -148h410l95 488h358l-95 -488h201l-38 -194h-201l-85 -438h-358l31 162q-100 -98 -199 -144q-100 -47 -209 -47q-141 33 -184 52q-57 25 -88 67q-78 119 -34 346v2h-214zM723 402q-5 -60 7 -87 q15 -35 47 -54t78 -19q112 0 193 86q42 46 71 110h-392q-3 -21 -4 -36z" />
<glyph unicode="&#x28a;" horiz-adv-x="1575" d="M46 457q32 162 117 274q98 127 203 192h-242l38 197h548l-55 -283q-91 -76 -142 -157q-73 -115 -94 -222q-27 -142 23 -230q50 -87 161 -87t194 87q84 88 112 230q21 107 -8 222q-20 84 -81 156l55 284h538l-38 -197h-243q78 -59 133 -192q45 -108 15 -266 q-50 -254 -252 -411q-203 -158 -475 -158t-413 157q-142 157 -94 404z" />
<glyph unicode="&#x28b;" horiz-adv-x="1372" d="M151 460l128 660h360l-128 -660q-33 -169 -26 -181q31 -52 78 -48l22 2q117 0 219 97q92 88 120 230q20 107 -14 222q-25 84 -94 156l33 182q210 -5 311 -93q68 -59 115 -192q38 -108 7 -266q-49 -254 -233 -411q-185 -158 -428 -158l-137 -2q-202 -3 -290 118 q-87 120 -43 344z" />
<glyph unicode="&#x28c;" horiz-adv-x="1335" d="M-78 0l659 1120h393l222 -1120h-358l-128 774l-429 -774h-359z" />
<glyph unicode="&#x28d;" horiz-adv-x="1892" d="M-37 0l513 1120h391l39 -770l338 770h391l77 -1120h-348l-38 772l-339 -772h-299l-39 764l-338 -764h-348z" />
<glyph unicode="&#x28e;" horiz-adv-x="1335" d="M-127 0l709 1226q108 187 217 262q109 74 264 74h207l-46 -235h-112q-91 0 -138 -29t-85 -104l-16 -31l273 -1163h-358l-153 760l-404 -760h-358z" />
<glyph unicode="&#x28f;" horiz-adv-x="1483" d="M109 1120h372l170 -345l302 345h374l-581 -648l-92 -472h-308l92 472z" />
<glyph unicode="&#x290;" horiz-adv-x="1421" d="M26 0l49 250l709 614h-565l50 256h977l-49 -250l-709 -614h591l-46 -236q-24 -126 -16 -158q5 -18 19 -23q1 -46 131 -46h166l-46 -235h-281q-205 0 -290 118q-82 116 -47 324h-643z" />
<glyph unicode="&#x291;" horiz-adv-x="1401" d="M-3 0l48 250l710 614h-565l50 256h977l-49 -250l-709 -614h161q16 43 35 83q161 195 328 193q285 -3 243 -238q-51 -285 -349 -294h-130l-28 -141l-199 1l28 140h-551zM810 259q5 -2 32 -3l83 -1q146 0 153 36q9 48 -122 48q-95 0 -146 -80z" />
<glyph unicode="&#x292;" horiz-adv-x="1312" d="M-48 -366l57 297q98 -54 199 -81q101 -28 204 -28q153 0 245 53t111 152q20 102 -53 155q-74 52 -237 52h-187l48 245l445 385h-565l50 256h977l-49 -250l-502 -434q160 -9 241 -32q120 -33 184 -146q58 -102 30 -245q-43 -222 -235 -337q-193 -116 -519 -116 q-115 0 -227 18q-111 19 -217 56z" />
<glyph unicode="&#x293;" horiz-adv-x="1312" d="M51 -116q58 275 429 275q183 0 292 -93q1 74 -57 116q-74 52 -237 52h-187l48 245l445 385h-565l50 256h977l-49 -250l-502 -434q160 -9 241 -32q119 -33 184 -146q58 -102 30 -245q-43 -222 -235 -337l-14 -9q-4 -37 -11 -77l-171 -6l2 12l-6 -1q-139 -35 -319 -35l3 2 h-2q-408 18 -346 322zM275 -130q-13 -57 153 -53q99 2 156 21q42 14 73 37q-31 65 -217 74q-147 6 -165 -79z" />
<glyph unicode="&#x294;" horiz-adv-x="1173" d="M121 0l143 736h93q217 0 325 114q72 76 86 147q18 96 -27 162q-77 114 -256 114q-80 0 -163 -22q-82 -21 -168 -64l58 298q82 35 167 52q84 18 265 18q241 1 409 -210q107 -133 65 -348q-45 -231 -228 -376q-121 -94 -315 -125l-96 -496h-358z" />
<glyph unicode="&#x295;" horiz-adv-x="1173" d="M117 997q41 215 199 348q251 211 491 210q181 0 259 -18q77 -17 147 -52l-58 -298q-70 43 -144 64q-75 22 -155 22q-179 0 -300 -114q-70 -66 -89 -162q-14 -71 28 -147q64 -114 281 -114h93l-143 -736h-358l96 496q-182 31 -265 125q-127 145 -82 376z" />
<glyph unicode="&#x296;" horiz-adv-x="1173" d="M-64 70l58 298q70 -43 144 -64q75 -22 155 -22q179 0 300 114q70 66 89 162q14 71 -28 147q-64 114 -281 114h-93l143 736h358l-96 -496q182 -31 265 -125q127 -145 82 -376q-41 -215 -199 -348q-251 -211 -491 -210q-181 0 -259 18q-77 17 -147 52z" />
<glyph unicode="&#x297;" horiz-adv-x="1173" d="M-10 132l168 865q42 215 200 348q250 211 491 210q181 0 258 -18q78 -17 147 -52l-58 -298q-70 43 -144 64q-74 22 -154 22q-179 0 -300 -114q-72 -67 -90 -162l-168 -865q-18 -96 26 -162q77 -114 256 -114q80 0 164 22q82 21 168 64l-58 -298q-83 -35 -167 -52 q-85 -18 -266 -18q-240 -1 -409 210q-106 133 -64 348z" />
<glyph unicode="&#x298;" horiz-adv-x="1741" d="M102 745q70 363 315 569t604 206q360 0 523.5 -206t93.5 -569q-70 -362 -314.5 -568t-604.5 -206q-359 0 -523 206t-94 568zM500 745q-46 -235 26 -365t248 -130q177 0 299 130t168 365q46 236 -26 366t-249 130q-176 0 -298 -130t-168 -366zM739 745q10 53 57 92 q45 39 99 39q53 0 85 -39q30 -39 20 -92q-11 -54 -56 -92t-99 -38t-85 38q-32 38 -21 92z" />
<glyph unicode="&#x299;" horiz-adv-x="1296" d="M63 0l218 1120h513q249 0 346 -70q75 -54 75 -158q0 -125 -75 -208q-52 -57 -134 -85q161 -47 161 -212q0 -31 -7 -66q-63 -321 -535 -321h-562zM465 224h181q159 0 183 126q3 16 3 30q0 94 -138 94h-181zM557 698h169q127 0 145 101q3 14 3 25q0 75 -109 75h-169z" />
<glyph unicode="&#x29a;" horiz-adv-x="1498" d="M63 318q22 112 99 184t204 102q-103 25 -146 88q-44 64 -25 161q29 151 159 222q130 72 362 72q417 0 558 -155q141 -156 87 -433t-255 -433q-201 -155 -577 -155q-261 0 -380 87t-86 260zM393 338q-11 -58 47 -98q57 -39 173 -39q135 -1 240 95q102 93 135 263 q35 179 -33 261q-79 100 -215 99q-95 0 -157 -35q-63 -36 -71 -78q-9 -44 42 -78q44 -30 161 -30h124l-44 -224h-118q-129 0 -198 -37q-74 -39 -86 -99z" />
<glyph unicode="&#x29b;" horiz-adv-x="1402" d="M45 559q51 261 240 411q189 149 467 149h31q46 205 172 319q131 118 336 118h281l-46 -235h-166q-102 0 -149 -46t-73 -181l-57 -291q-80 49 -164 73q-85 24 -174 24q-166 0 -272 -89q-107 -88 -139 -252q-32 -162 38 -251q69 -89 228 -89q43 0 81 6q38 5 70 16l31 168 h-276l43 221h540l-102 -529q-114 -50 -230 -76q-117 -25 -236 -25q-268 0 -396 151q-128 150 -78 408z" />
<glyph unicode="&#x29c;" horiz-adv-x="1415" d="M58 0l218 1120h358l-83 -426h355l83 426h358l-218 -1120h-358l92 473h-355l-92 -473h-358z" />
<glyph unicode="&#x29d;" horiz-adv-x="702" d="M-482 -132q57 275 365 276h209l190 976h358l-190 -976h168l-41 -210q-56 -1 -171 -1q-46 -158 -155 -257q-131 -118 -336 -118h-113v-2q-27 0 -51 2h-13v1q-279 26 -220 309zM-278 -142q-12 -57 80 -64h44q102 0 149 46q29 28 51 93q-140 0 -203 1q-104 0 -121 -76z M310 1264l56 292h358l-56 -292h-358z" />
<glyph unicode="&#x29e;" horiz-adv-x="1499" d="M149 0l646 514l-472 606h434l346 -467l91 467h358l-302 -1556h-358l164 847l-491 -411h-416z" />
<glyph unicode="&#x29f;" horiz-adv-x="1104" d="M63 0l218 1120h362l-161 -829h487l-57 -291h-849z" />
<glyph unicode="&#x2a0;" horiz-adv-x="1622" d="M91 559q50 259 215 423q165 163 372 163q117 0 197 -46t135 -145l32 166h2q46 204 172 318q131 118 336 118h281l-46 -235h-166q-102 0 -149 -46t-73 -181l-298 -1520h-360l115 588q-94 -99 -192 -145q-97 -46 -214 -46q-207 0 -308 165q-102 164 -51 423zM462 559 q-31 -160 13 -244t158 -84q115 0 192 84t108 244t-13 244t-159 84q-114 0 -191 -84t-108 -244z" />
<glyph unicode="&#x2a1;" horiz-adv-x="1173" d="M-7 148l37 194h157l77 394h93q217 0 325 114q72 76 86 147q18 96 -27 162q-77 114 -256 114q-80 0 -163 -22q-82 -21 -168 -64l58 298q82 35 167 52q84 18 265 18q241 0 409 -210q107 -133 65 -348q-45 -231 -228 -376q-121 -94 -315 -125l-30 -154h258l-37 -194h-258 l-29 -148h-358l29 148h-157z" />
<glyph unicode="&#x2a2;" horiz-adv-x="1173" d="M117 997q41 215 199 348q250 210 491 210q181 0 259 -18q77 -17 147 -52l-58 -298q-70 43 -144 64q-75 22 -155 22q-179 0 -300 -114q-70 -66 -89 -162q-14 -71 28 -147q64 -114 281 -114h93l-77 -394h157l-37 -194h-157l-29 -148h-358l29 148h-258l37 194h258l30 154 q-182 31 -265 125q-127 145 -82 376z" />
<glyph unicode="&#x2a3;" horiz-adv-x="2367" d="M52 559q51 259 216 423q165 165 372 165q116 0 196 -47q80 -46 135 -144l117 600h360l-85 -436h975l-48 -250l-710 -614h590l-49 -256h-975h-27h-333l31 162q-93 -99 -191 -145t-215 -46q-207 0 -308 165q-101 164 -51 423zM423 559q-31 -160 13 -244t158 -84 q115 0 192 84t108 244t-13 244t-159 84q-114 0 -191 -84t-108 -244zM1200 278l677 586h-563z" />
<glyph unicode="&#x2a4;" horiz-adv-x="2487" d="M92 559q51 259 216 423q164 165 371 165q116 0 197 -47q80 -46 135 -144l117 600h360l-85 -436h975l-48 -250l-503 -434q160 -9 242 -32q119 -33 183 -146q59 -102 31 -245q-43 -222 -236 -337q-192 -116 -518 -116q-115 0 -227 18q-112 19 -218 56l58 297 q98 -54 199 -81q101 -28 204 -28q153 0 245 53t111 152q20 102 -54 155q-73 52 -236 52h-187l48 245l444 385h-563l-167 -864h-360l31 162q-93 -99 -191 -145t-215 -46q-207 0 -308 165q-101 164 -51 423zM463 559q-31 -160 13 -244t158 -84q115 0 192 84t108 244t-13 244 t-159 84q-114 0 -191 -84t-108 -244z" />
<glyph unicode="&#x2a5;" horiz-adv-x="2365" d="M60 559q51 259 216 423q165 165 372 165q116 0 196 -47q81 -46 135 -144l117 600h360l-85 -436h973l-48 -250l-710 -614h150q46 117 92 172q140 171 204 171q202 0 152 -276q-58 -323 -301 -323h-32q-8 -56 -19 -112l-203 1q11 55 25 111h-500h-29h-331l31 162 q-93 -99 -191 -145t-215 -46q-207 0 -308 165q-101 164 -51 423zM431 559q-31 -160 13 -244q45 -84 159 -84q115 0 191 84q77 84 108 244t-13 244t-159 84q-114 0 -191 -84t-108 -244zM1208 280l675 584h-561zM1912 257h39q37 0 52 57q18 71 -13 75q-46 6 -78 -132z" />
<glyph unicode="&#x2a6;" horiz-adv-x="1997" d="M55 864l50 256h178l62 318h358l-62 -318h369l-26 -136q38 45 88 77q139 86 391 86q99 0 205 -15t228 -47l-53 -272q-106 48 -208 72t-197 24q-102 0 -156.5 -25.5t-64.5 -78.5q-8 -43 24.5 -66t127.5 -34l62 -9q273 -40 347 -115q79 -80 46 -251q-35 -179 -181.5 -254.5 t-408.5 -75.5h-780q-212 0 -283 88.5t-30 300.5l92 475h-178zM499 389q-15 -78 10.5 -105.5t117.5 -27.5h632q105 0 161 15.5t67 72.5q5 28 -26 52q-31 22 -139 36l-61 8q-233 30 -313.5 111t-48.5 246q7 35 18 67h-326z" />
<glyph unicode="&#x2a7;" horiz-adv-x="1574" d="M87 864l49 256h178l62 318h358l-62 -318h337l16 78q35 183 154 270q119 88 333 88h274l-45 -235h-198q-76 0 -112 -27q-35 -28 -48 -96l-233 -1198q-40 -205 -171 -324q-131 -118 -336 -118h-177l45 235h62q102 0 149 46q44 43 70 161h-306q-212 0 -284 88 q-71 89 -30 301l93 475h-178zM530 389q-15 -78 11 -105q25 -28 117 -28h183l119 608h-337z" />
<glyph unicode="&#x2a8;" horiz-adv-x="1903" d="M69 864l50 256h178l61 318h358l-61 -318h369l-37 -187q31 31 67 59q201 155 504 155q88 0 170 -15q83 -16 162 -47l-57 -292q-63 50 -132 74t-148 24q-150 0 -250 -87q-101 -88 -131 -245q-20 -99 0 -170q138 181 307 181q289 0 262 -245l1 1l-2 -4q-1 -13 -4 -28 q-58 -323 -407 -323q-103 0 -111 2q-8 -57 -19 -114l-203 1q18 94 33 165q-85 37 -143 101q-42 46 -67 103l-44 -229h-307q-212 0 -283 88q-72 89 -30 301l92 475h-178zM513 389q-16 -78 10 -105q26 -28 118 -28h168q-45 127 -10 303q34 177 129 305h-323zM1286 253 q45 -21 106 -25h5q147 0 157 57q13 75 -117 75q-83 0 -151 -107z" />
<glyph unicode="&#x2a9;" horiz-adv-x="2102" d="M99 864l49 256h178l16 78q35 183 154 270q119 88 333 88h274l-45 -235h-198q-76 0 -112 -27q-35 -28 -48 -96l-16 -78h303h3h355l-31 -164q100 98 200 144q100 47 210 47q194 0 272 -119q76 -119 32 -346l-128 -662q-44 -223 -177 -344q-131 -118 -336 -118h-281l45 235 h166q102 0 149 46t74 181l97 502q28 145 33 200q4 55 -7 81q-14 35 -46 55q-33 19 -79 19q-112 0 -193 -87q-80 -86 -110 -239l-107 -551h-358l168 864h-303l-168 -864h-358l168 864h-178z" />
<glyph unicode="&#x2aa;" horiz-adv-x="1766" d="M21 0l302 1556h358l-252 -1300h588q105 0 161 15.5t67 72.5q4 28 -27 52q-31 22 -138 36l-62 8q-233 30 -313 111t-48 246q35 178 173.5 264t390.5 86q99 0 205 -15t228 -47l-53 -272q-106 48 -208.5 72t-197.5 24q-102 0 -156 -25.5t-65 -78.5q-8 -43 25 -66t128 -34 l61 -9q273 -40 348 -115q79 -80 46 -251q-35 -179 -181.5 -254.5t-408.5 -75.5h-971z" />
<glyph unicode="&#x2ab;" horiz-adv-x="1597" d="M21 0l302 1556h358l-85 -436h969l-48 -250l-709 -614h590l-50 -256h-969h-33h-325zM434 284l670 580h-557z" />
<glyph unicode="&#x2ac;" horiz-adv-x="1210" d="M40 627h223l36 -432l205 432h191l38 -428l204 428h222l-310 -627h-251l-37 431l-204 -431h-250zM174 1312h223l36 -432l205 432h191l37 -428l205 428h222l-310 -627h-251l-38 431l-203 -431h-250z" />
<glyph unicode="&#x2ad;" horiz-adv-x="850" d="M-64 177l87 450h661l-87 -450h-143l57 297h-375l-57 -297h-143zM69 862l87 450h661l-87 -450h-143l58 297h-375l-58 -297h-143z" />
<glyph unicode="&#x2ae;" horiz-adv-x="1386" d="M-36 1321l46 235h281q205 0 290 -118q86 -117 43 -344l-94 -496q-30 -157 -33 -202q-4 -55 7 -81q14 -35 46 -55q32 -19 78 -19q112 0 193 87t111 239l107 551h358l-303 -1556h-358l117 600q-99 -97 -200 -144t-210 -47q-194 0 -272 119q-77 118 -33 346l126 658 q26 135 -3 181t-131 46h-166z" />
<glyph unicode="&#x2af;" horiz-adv-x="1616" d="M-33 1321l45 235h281q205 0 290 -118q86 -121 42 -349l-95 -491q-29 -147 -33 -202t7 -81q14 -35 46 -55q32 -19 79 -19q112 0 192 87q81 86 111 239l107 551h358l-213 -1098q-26 -135 2.5 -181t130.5 -46h166l-45 -235h-279q-205 0 -290 118q-86 121 -43 344l27 140 q-88 -89 -200 -142q-100 -47 -210 -47q-194 0 -272 119q-77 119 -33 346l128 658q26 135 -2.5 181t-130.5 46h-166z" />
<glyph unicode="&#x2b0;" horiz-adv-x="933" d="M25 668l170 871h229l-66 -336q63 55 126 81q64 26 134 26q124 0 175 -66q52 -67 28 -194l-75 -382h-231l12 62l45 229q16 83 18 113q2 31 -5 46q-10 19 -31 30t-50 11q-72 0 -123 -48q-50 -49 -67 -134l-60 -309h-229z" />
<glyph unicode="&#x2b1;" horiz-adv-x="933" d="M25 668l119 613q25 125 108 192q82 66 213 66h180l-25 -131h-107q-65 0 -94 -26q-30 -26 -44 -101l-15 -76q62 54 124 79q64 26 134 26q124 0 176 -66q51 -67 26 -194l-74 -382h-230l12 62l44 229q16 83 18 113q2 31 -6 46q-9 19 -30 30t-51 11q-71 0 -122 -48 q-50 -49 -67 -134l-60 -309h-229z" />
<glyph unicode="&#x2b2;" horiz-adv-x="449" d="M-153 420l26 132h40q65 0 95 26q29 26 44 101l119 616h229l-119 -616q-25 -126 -107 -192q-82 -67 -213 -67h-114zM187 1376l32 163h229l-32 -163h-229z" />
<glyph unicode="&#x2b3;" horiz-adv-x="646" d="M48 668l121 627h229l-20 -103q57 62 120 90q62 28 142 28q11 0 25 -1q13 0 39 -3l-35 -182q-28 13 -56 19q-29 5 -59 5q-88 0 -146 -49q-57 -50 -75 -142l-56 -289h-229z" />
</font>
</defs>
</svg>
